(Classical) Воржишек – Симфония и месса; И.А. Бенда – Симфонии, клавесинный концерт g-moll / Vorisek – Symphony & Mass; J.A. Benda – Symphonies etc. (Virtuosi di Praga, Oldrich Vlcek, Vaclav Neumann) - 1995, FLAC (image+.cue) lossless


 

[Цитировать]

[Prager Virtuosen: Die grossen Böhmischen Komponisten. Folge 5]
Воржишек – Симфония и месса; И.А. Бенда – Симфонии, клавесинный концерт g-moll / Voříšek – Symphony & Mass; J.A. Benda – Symphonies etc. (Virtuosi di Praga, Oldřich Vlček, Vaclav Neumann)

Жанр: Classical
Страна-производитель диска: Германия?
Год издания диска: 1995
Издатель (лейбл): Cantus Classicus
Номер по каталогу: CACD 5.00130 F
Дата записи: 1993 г. (Воржишек), 1994 г. (Бенда), Прага.
Аудиокодек: FLAC
Тип рипа: image+.cue
Битрейт аудио: lossless
Продолжительность: 00:59:06 + 00:53:19
Источник: odeonmusic
Наличие сканов в содержимом раздачи: да
Треклист:-Cd 1.
Ян Вацлав Гуго Воржишек (1791 — 1825).
01 — 04. Симфония D-dur, [op. 23/24] (1821?/1823, опубл. 1825?; 1957).
05 — 12. Торжественная месса B-dur для солистов (SATB), хора (SATB) и оркестра, [op. 24] (1824 — 1825).-Cd 2.
Иржи Антонин Бенда (1722 — 1795).
01 — 03. Симфония B-dur для струнного оркестра.
04 — 06. Клавесинный концерт g-moll.
07 — 08. Итальянские арии № 3 и 6.
09 — 11. Симфония № 8 D-dur.
13 — 14. Симфония № 2 G-dur.

Подробный треклист

Cd 1.
Ян Вацлав Гуго Воржишек (1791 — 1825).-Симфония D-dur, [op. 23/24] (1821?/1823, опубл. 1825?; 1957).
01. I. Allegro con brio [06:05].
02. II. Andante [08:32].
03. III. Scherzo. Allegro ma non troppo. — Trio. — Scherzo da capo. — Coda [06:08].
04. IV. Finale. Allegro con brio [05:55].
Торжественная месса B-dur для солистов (SATB), хора (SATB) и оркестра, [op. 24] (1824 — 1825).
I. Kyrie.
05. Kyrie eleison [04:30].
II. Gloria.
06. Et in terra. —
(07.) Qui tollis. —
(08.) Quoniam tu solus [07:49].
III. Credo.
07. Patrem omnipotentem. — [03:07].
08. Et incarnatus est. —
(11.) Et resurrexit [06:07].
IV. Sanctus.
09. Sanctus [01:12].
V. Benedictus.
10. Benedictus [04:02].
VI. Agnus Dei.
11. Agnus Dei. — [02:56].
12. Dona nobis [02:16].-Cd 2.
Иржи Антонин Бенда (1722 — 1795).-Симфония B-dur для струнного оркестра.
01. I. Moderato [03:02].
02. II. Allegretto [03:08].
03. III. Allegro vivacissimo [01:00].
Клавесинный концерт g-moll.
04. I. Allegro non troppo [07:30].
05. II. Andante [06:06].
06. III. Presto [06:23].
«Собрание итальянских арий» (1782 — 1783): Тетрадь I.
07. № 6 (ариетта) F-dur. «S' ella vuol rendersi...» Andantino [03:39].
08. № 3 Es-dur. «No, non vedrete mai...» Allegro moderato [06:10].
Симфония № 8 D-dur.
09. I. Allegro. — [02:50].
10. II. Andante. — [02:58].
11. III. Spiritoso [01:49].
Симфония № 2 G-dur.
12. I. Allegro [02:19].
13. II. Andante [03:24].
14. III. Allegro [02:22].
-Исполнители:
Ludmila Vernerová (сопрано, диск I),
Marta Beňačková (контральто, диск I),
Igor Pasek (тенор, диск I),
Peter Mikuláš (бас, диск I).
Josef Kšica (орган, диск I).
Prager Kammerchor (хормейстер Lubomír Mátl).
Zdena Kloubová (сопрано, диск II).
Zuzana Růžičková (клавесин, диск II).
Virtuosi di Praga.
Дирижер Oldřich Vlček.
Дирижер Vaclav Neumann (диск I — по-видимому, в Мессе).-

Логи создания рипаCD 1.

Exact Audio Copy V1.0 beta 3 from 29. August 2011
EAC extraction logfile from 13. May 2012, 12:19
Die Prager Virtuosen / Prager Virtuosen (vol.5) - Voříšek, Benda (cd1)
Used drive : HL-DT-STDVDRAM GSA-H10A Adapter: 0 ID: 0
Read mode : Secure
Utilize accurate stream : Yes
Defeat audio cache : Yes
Make use of C2 pointers : No
Read offset correction : 667
Overread into Lead-In and Lead-Out : No
Fill up missing offset samples with silence : Yes
Delete leading and trailing silent blocks : No
Null samples used in CRC calculations : Yes
Used interface : Native Win32 interface for Win NT & 2000
Used output format : User Defined Encoder
Selected bitrate : 1024 kBit/s
Quality : High
Add ID3 tag : No
Command line compressor : C:\Program Files\Exact Audio Copy\Flac\flac.exe
Additional command line options : -8 -V -T "TITLE=%title%" -T "ARTIST=%artist%" -T "ALBUMARTIST=%albumartist%" -T "ALBUM=%albumtitle%" -T "DATE=%year%" -T "TRACKNUMBER=%tracknr%" -T "TRACKTOTAL=%numtracks%" -T "GENRE=%genre%" -T "COMMENT=%comment%" -T "PERFORMER=%albuminterpret%" -T "COMPOSER=%composer%" %source% -o %dest%
TOC of the extracted CD
Track | Start | Length | Start sector | End sector
---------------------------------------------------------
1 | 0:00.43 | 6:09.50 | 43 | 27767
2 | 6:10.18 | 8:33.00 | 27768 | 66242
3 | 14:43.18 | 6:10.00 | 66243 | 93992
4 | 20:53.18 | 6:03.00 | 93993 | 121217
5 | 26:56.18 | 4:32.00 | 121218 | 141617
6 | 31:28.18 | 7:49.12 | 141618 | 176804
7 | 39:17.30 | 3:09.63 | 176805 | 191042
8 | 42:27.18 | 6:08.00 | 191043 | 218642
9 | 48:35.18 | 1:13.05 | 218643 | 224122
10 | 49:48.23 | 4:02.70 | 224123 | 242342
11 | 53:51.18 | 2:56.42 | 242343 | 255584
12 | 56:47.60 | 2:17.58 | 255585 | 265917
Range status and errors
Selected range
Filename F:\Ripped general\[9840] Prager Virtuosen (vol.5) - Voříšek, Benda\cd1\Prager Virtuosen (vol.5) - Voříšek, Benda (cd1).wav
Peak level 100.0 %
Extraction speed 7.0 X
Range quality 100.0 %
Test CRC E890A29A
Copy CRC E890A29A
Copy OK
No errors occurred
AccurateRip summary
Track 1 cannot be verified as accurate (confidence 1) [CBF2BF92], AccurateRip returned [79C2F183] (AR v2)
Track 2 cannot be verified as accurate (confidence 1) [9C21F263], AccurateRip returned [C2369A17] (AR v2)
Track 3 cannot be verified as accurate (confidence 1) [E036ED2B], AccurateRip returned [DBACAE93] (AR v2)
Track 4 cannot be verified as accurate (confidence 1) [8385CD21], AccurateRip returned [4281E44C] (AR v2)
Track 5 cannot be verified as accurate (confidence 1) [063F4D91], AccurateRip returned [E3458D8B] (AR v2)
Track 6 cannot be verified as accurate (confidence 1) [EBFF1995], AccurateRip returned [998E83FC] (AR v2)
Track 7 cannot be verified as accurate (confidence 1) [EF141D13], AccurateRip returned [42BE497D] (AR v2)
Track 8 cannot be verified as accurate (confidence 1) [5F3DCE5A], AccurateRip returned [C6FCFCA3] (AR v2)
Track 9 cannot be verified as accurate (confidence 1) [1ED68472], AccurateRip returned [B95841AB] (AR v2)
Track 10 cannot be verified as accurate (confidence 1) [3C14FF75], AccurateRip returned [AC6E19C6] (AR v2)
Track 11 cannot be verified as accurate (confidence 1) [6781D99E], AccurateRip returned [49F38280] (AR v2)
Track 12 cannot be verified as accurate (confidence 1) [92F45079], AccurateRip returned [30CBA8A9] (AR v2)
No tracks could be verified as accurate
You may have a different pressing from the one(s) in the database
End of status report

CD 2.

Exact Audio Copy V1.0 beta 3 from 29. August 2011
EAC extraction logfile from 13. May 2012, 12:41
Die Prager Virtuosen / Prager Virtuosen (vol.5) - Voříšek, Benda (cd2)
Used drive : HL-DT-STDVDRAM GSA-H10A Adapter: 0 ID: 0
Read mode : Secure
Utilize accurate stream : Yes
Defeat audio cache : Yes
Make use of C2 pointers : No
Read offset correction : 667
Overread into Lead-In and Lead-Out : No
Fill up missing offset samples with silence : Yes
Delete leading and trailing silent blocks : No
Null samples used in CRC calculations : Yes
Used interface : Native Win32 interface for Win NT & 2000
Used output format : User Defined Encoder
Selected bitrate : 1024 kBit/s
Quality : High
Add ID3 tag : No
Command line compressor : C:\Program Files\Exact Audio Copy\Flac\flac.exe
Additional command line options : -8 -V -T "TITLE=%title%" -T "ARTIST=%artist%" -T "ALBUMARTIST=%albumartist%" -T "ALBUM=%albumtitle%" -T "DATE=%year%" -T "TRACKNUMBER=%tracknr%" -T "TRACKTOTAL=%numtracks%" -T "GENRE=%genre%" -T "COMMENT=%comment%" -T "PERFORMER=%albuminterpret%" -T "COMPOSER=%composer%" %source% -o %dest%
TOC of the extracted CD
Track | Start | Length | Start sector | End sector
---------------------------------------------------------
1 | 0:00.00 | 3:03.57 | 0 | 13781
2 | 3:03.57 | 3:09.18 | 13782 | 27974
3 | 6:13.00 | 1:04.00 | 27975 | 32774
4 | 7:17.00 | 7:33.47 | 32775 | 66796
5 | 14:50.47 | 6:10.03 | 66797 | 94549
6 | 21:00.50 | 6:26.25 | 94550 | 123524
7 | 27:27.00 | 3:43.00 | 123525 | 140249
8 | 31:10.00 | 6:17.00 | 140250 | 168524
9 | 37:27.00 | 2:49.60 | 168525 | 181259
10 | 40:16.60 | 2:57.72 | 181260 | 194606
11 | 43:14.57 | 1:55.18 | 194607 | 203249
12 | 45:10.00 | 2:20.55 | 203250 | 213804
13 | 47:30.55 | 3:25.52 | 213805 | 229231
14 | 50:56.32 | 2:23.00 | 229232 | 239956
Range status and errors
Selected range
Filename F:\Ripped general\[9840] Prager Virtuosen (vol.5) - Voříšek, Benda\cd2\Prager Virtuosen (vol.5) - Voříšek, Benda (cd2).wav
Peak level 87.0 %
Extraction speed 7.0 X
Range quality 100.0 %
Test CRC D6FB0C7B
Copy CRC D6FB0C7B
Copy OK
No errors occurred
AccurateRip summary
Track 1 not present in database
Track 2 not present in database
Track 3 not present in database
Track 4 not present in database
Track 5 not present in database
Track 6 not present in database
Track 7 not present in database
Track 8 not present in database
Track 9 not present in database
Track 10 not present in database
Track 11 not present in database
Track 12 not present in database
Track 13 not present in database
Track 14 not present in database
None of the tracks are present in the AccurateRip database
End of status report

Содержание индексных карт (.CUE)CD 1.

REM GENRE Classical
REM DATE 1993
REM DISCID BB0DD90C
REM COMMENT "ExactAudioCopy v1.0b3"
PERFORMER "Virtuosi du Praga"
TITLE "Prager virtuosen, vol. 5 – Cd 1 – Vorisek – Oldrich Vlcek"
FILE "Prager virtuosen, vol. 5 – Cd 1 – Vorisek – Oldrich Vlcek.flac" WAVE
TRACK 01 AUDIO
TITLE "Symphony in D major - I. Allegro con brio"
PERFORMER "Virtuosi du Praga"
INDEX 00 00:00:00
INDEX 01 00:00:43
TRACK 02 AUDIO
TITLE "Symphony in D major - II. Andante"
PERFORMER "Virtuosi du Praga"
INDEX 01 06:10:18
TRACK 03 AUDIO
TITLE "Symphony in D major - III. Scherzo. Allegro ma non troppo"
PERFORMER "Virtuosi du Praga"
INDEX 01 14:43:18
TRACK 04 AUDIO
TITLE "Symphony in D major - IV. Finale. Allegro ma non troppo"
PERFORMER "Virtuosi du Praga"
INDEX 01 20:53:18
TRACK 05 AUDIO
TITLE "Mass in B flat major - I. Kyrie"
PERFORMER "Virtuosi du Praga"
INDEX 01 26:56:18
TRACK 06 AUDIO
TITLE "Mass in B flat major - II. Gloria"
PERFORMER "Virtuosi du Praga"
INDEX 01 31:28:18
TRACK 07 AUDIO
TITLE "Mass in B flat major - III. Credo - Patrem omnipotentem -"
PERFORMER "Virtuosi du Praga"
INDEX 01 39:17:30
TRACK 08 AUDIO
TITLE "Mass in B flat major - III. Credo - Et incarnatus est"
PERFORMER "Virtuosi du Praga"
INDEX 01 42:27:18
TRACK 09 AUDIO
TITLE "Mass in B flat major - IV. Sanctus"
PERFORMER "Virtuosi du Praga"
INDEX 01 48:35:18
TRACK 10 AUDIO
TITLE "Mass in B flat major - V. Benedictus"
PERFORMER "Virtuosi du Praga"
INDEX 01 49:48:23
TRACK 11 AUDIO
TITLE "Mass in B flat major - VI. Agnus Dei - Agnus Dei"
PERFORMER "Virtuosi du Praga"
INDEX 01 53:51:18
TRACK 12 AUDIO
TITLE "Mass in B flat major - VI. Agnus Dei - Dona nobis"
PERFORMER "Virtuosi du Praga"
INDEX 01 56:47:60

CD 2.

REM GENRE Classical
REM DATE 1994
REM DISCID D60C7F0E
REM COMMENT "ExactAudioCopy v1.0b3"
PERFORMER "Virtuosi di Praga"
TITLE "Prager virtuosen, vol. 5 – Cd 2 – J.A. Benda – Oldrich Vlcek"
FILE "Prager virtuosen, vol. 5 – Cd 2 – J.A. Benda – Oldrich Vlcek.flac" WAVE
TRACK 01 AUDIO
TITLE "Symphony for strings in B flat major - I. Moderato"
PERFORMER "Virtuosi di Praga"
INDEX 01 00:00:00
TRACK 02 AUDIO
TITLE "Symphony for strings in B flat major - II. Allegretto"
PERFORMER "Virtuosi di Praga"
INDEX 01 03:03:57
TRACK 03 AUDIO
TITLE "Symphony for strings in B flat major - III. Allegro vivacissimo"
PERFORMER "Virtuosi di Praga"
INDEX 01 06:13:00
TRACK 04 AUDIO
TITLE "Harpsichord Concerto in G minor - I. Allegro non troppo"
PERFORMER "Virtuosi di Praga"
INDEX 01 07:17:00
TRACK 05 AUDIO
TITLE "Harpsichord Concerto in G minor - II. Andante"
PERFORMER "Virtuosi di Praga"
INDEX 01 14:50:47
TRACK 06 AUDIO
TITLE "Harpsichord Concerto in G minor - III. Presto"
PERFORMER "Virtuosi di Praga"
INDEX 01 21:00:50
TRACK 07 AUDIO
TITLE "Die Italienischen Arien - No. 6 - 'S'ella vuol rendersi'"
PERFORMER "Virtuosi di Praga"
INDEX 01 27:27:00
TRACK 08 AUDIO
TITLE "Die Italienischen Arien - No. 3 - 'No, non vedrete mai'"
PERFORMER "Virtuosi di Praga"
INDEX 01 31:10:00
TRACK 09 AUDIO
TITLE "Symphony No. 8 in D major - I. Allegro -"
PERFORMER "Virtuosi di Praga"
INDEX 01 37:27:00
TRACK 10 AUDIO
TITLE "Symphony No. 8 in D major - II. Andante -"
PERFORMER "Virtuosi di Praga"
INDEX 01 40:16:60
TRACK 11 AUDIO
TITLE "Symphony No. 8 in D major - III. Spiritoso"
PERFORMER "Virtuosi di Praga"
INDEX 01 43:14:57
TRACK 12 AUDIO
TITLE "Symphony No. 2 in G major - I. Allegro"
PERFORMER "Virtuosi di Praga"
INDEX 01 45:10:00
TRACK 13 AUDIO
TITLE "Symphony No. 2 in G major - II. Andante"
PERFORMER "Virtuosi di Praga"
INDEX 01 47:30:55
TRACK 14 AUDIO
TITLE "Symphony No. 2 in G major - III. Allegro"
PERFORMER "Virtuosi di Praga"
INDEX 01 50:56:32

Варианты индексных карт (.CUE) с выставленными зазорамиCD 1.

REM GENRE Classical
REM DATE 1993
REM DISCID BB0DD90C
REM COMMENT "ExactAudioCopy v1.0b3"
PERFORMER "Virtuosi du Praga"
TITLE "Prager virtuosen, vol. 5 – Cd 1 – Vorisek – Oldrich Vlcek"
FILE "Prager virtuosen, vol. 5 – Cd 1 – Vorisek – Oldrich Vlcek.flac" WAVE
TRACK 01 AUDIO
TITLE "Symphony in D major - I. Allegro con brio"
PERFORMER "Virtuosi du Praga"
INDEX 00 00:00:00
INDEX 01 00:00:63
TRACK 02 AUDIO
TITLE "Symphony in D major - II. Andante"
PERFORMER "Virtuosi du Praga"
INDEX 00 06:08:64
INDEX 01 06:10:18
TRACK 03 AUDIO
TITLE "Symphony in D major - III. Scherzo. Allegro ma non troppo"
PERFORMER "Virtuosi du Praga"
INDEX 01 14:43:18
TRACK 04 AUDIO
TITLE "Symphony in D major - IV. Finale. Allegro ma non troppo"
PERFORMER "Virtuosi du Praga"
INDEX 01 20:53:18
TRACK 05 AUDIO
TITLE "Mass in B flat major - I. Kyrie"
PERFORMER "Virtuosi du Praga"
INDEX 00 26:50:22
INDEX 01 26:56:18
TRACK 06 AUDIO
TITLE "Mass in B flat major - II. Gloria"
PERFORMER "Virtuosi du Praga"
INDEX 01 31:28:18
TRACK 07 AUDIO
TITLE "Mass in B flat major - III. Credo - Patrem omnipotentem -"
PERFORMER "Virtuosi du Praga"
INDEX 01 39:17:30
TRACK 08 AUDIO
TITLE "Mass in B flat major - III. Credo - Et incarnatus est"
PERFORMER "Virtuosi du Praga"
INDEX 01 42:27:18
TRACK 09 AUDIO
TITLE "Mass in B flat major - IV. Sanctus"
PERFORMER "Virtuosi du Praga"
INDEX 01 48:35:18
TRACK 10 AUDIO
TITLE "Mass in B flat major - V. Benedictus"
PERFORMER "Virtuosi du Praga"
INDEX 01 49:48:23
TRACK 11 AUDIO
TITLE "Mass in B flat major - VI. Agnus Dei - Agnus Dei"
PERFORMER "Virtuosi du Praga"
INDEX 01 53:51:18
TRACK 12 AUDIO
TITLE "Mass in B flat major - VI. Agnus Dei - Dona nobis"
PERFORMER "Virtuosi du Praga"
INDEX 01 56:47:60

CD 2.

REM GENRE Classical
REM DATE 1994
REM DISCID D60C7F0E
REM COMMENT "ExactAudioCopy v1.0b3"
PERFORMER "Virtuosi di Praga"
TITLE "Prager virtuosen, vol. 5 – Cd 2 – J.A. Benda – Oldrich Vlcek"
FILE "Prager virtuosen, vol. 5 – Cd 2 – J.A. Benda – Oldrich Vlcek.wav" WAVE
TRACK 01 AUDIO
TITLE "Symphony for strings in B flat major - I. Moderato"
PERFORMER "Virtuosi di Praga"
INDEX 01 00:00:00
TRACK 02 AUDIO
TITLE "Symphony for strings in B flat major - II. Allegretto"
PERFORMER "Virtuosi di Praga"
INDEX 01 03:04:12
TRACK 03 AUDIO
TITLE "Symphony for strings in B flat major - III. Allegro vivacissimo"
PERFORMER "Virtuosi di Praga"
INDEX 01 06:13:00
TRACK 04 AUDIO
TITLE "Harpsichord Concerto in G minor - I. Allegro non troppo"
PERFORMER "Virtuosi di Praga"
INDEX 00 07:13:70
INDEX 01 07:17:00
TRACK 05 AUDIO
TITLE "Harpsichord Concerto in G minor - II. Andante"
PERFORMER "Virtuosi di Praga"
INDEX 00 14:49:07
INDEX 01 14:50:47
TRACK 06 AUDIO
TITLE "Harpsichord Concerto in G minor - III. Presto"
PERFORMER "Virtuosi di Praga"
INDEX 00 20:59:23
INDEX 01 21:00:50
TRACK 07 AUDIO
TITLE "Die Italienischen Arien - No. 6 - 'S'ella vuol rendersi'"
PERFORMER "Virtuosi di Praga"
INDEX 00 27:23:11
INDEX 01 27:27:00
TRACK 08 AUDIO
TITLE "Die Italienischen Arien - No. 3 - 'No, non vedrete mai'"
PERFORMER "Virtuosi di Praga"
INDEX 00 31:07:20
INDEX 01 31:10:00
TRACK 09 AUDIO
TITLE "Symphony No. 8 in D major - I. Allegro -"
PERFORMER "Virtuosi di Praga"
INDEX 00 37:20:68
INDEX 01 37:27:00
TRACK 10 AUDIO
TITLE "Symphony No. 8 in D major - II. Andante -"
PERFORMER "Virtuosi di Praga"
INDEX 01 40:17:61
TRACK 11 AUDIO
TITLE "Symphony No. 8 in D major - III. Spiritoso"
PERFORMER "Virtuosi di Praga"
INDEX 01 43:14:65
TRACK 12 AUDIO
TITLE "Symphony No. 2 in G major - I. Allegro"
PERFORMER "Virtuosi di Praga"
INDEX 00 45:04:01
INDEX 01 45:10:00
TRACK 13 AUDIO
TITLE "Symphony No. 2 in G major - II. Andante"
PERFORMER "Virtuosi di Praga"
INDEX 01 47:30:55
TRACK 14 AUDIO
TITLE "Symphony No. 2 in G major - III. Allegro"
PERFORMER "Virtuosi di Praga"
INDEX 01 50:56:32

Вариант индексной карты (.CUE) с выставленными зазорами и более подробным разделением Мессы на трекиCD 1.

REM GENRE Classical
REM DATE 1993
REM DISCID BB0DD90C
REM COMMENT "ExactAudioCopy v1.0b3"
PERFORMER "Virtuosi du Praga"
TITLE "Prager virtuosen, vol. 5 – Cd 1 – Vorisek – Oldrich Vlcek"
FILE "Prager virtuosen, vol. 5 – Cd 1 – Vorisek – Oldrich Vlcek.flac" WAVE
TRACK 01 AUDIO
TITLE "Symphony in D major - I. Allegro con brio"
PERFORMER "Virtuosi du Praga"
INDEX 00 00:00:00
INDEX 01 00:00:63
TRACK 02 AUDIO
TITLE "Symphony in D major - II. Andante"
PERFORMER "Virtuosi du Praga"
INDEX 00 06:08:64
INDEX 01 06:10:18
TRACK 03 AUDIO
TITLE "Symphony in D major - III. Scherzo. Allegro ma non troppo"
PERFORMER "Virtuosi du Praga"
INDEX 01 14:43:18
TRACK 04 AUDIO
TITLE "Symphony in D major - IV. Finale. Allegro ma non troppo"
PERFORMER "Virtuosi du Praga"
INDEX 01 20:53:18
TRACK 05 AUDIO
TITLE "Mass in B flat major - I. Kyrie"
PERFORMER "Virtuosi du Praga"
INDEX 00 26:50:22
INDEX 01 26:56:18
TRACK 06 AUDIO
TITLE "Mass in B flat major - II. Gloria - Et in terra -"
PERFORMER "Virtuosi du Praga"
INDEX 01 31:28:18
TRACK 07 AUDIO
TITLE "Mass in B flat major - II. Gloria - Qui tollis -"
PERFORMER "Virtuosi du Praga"
INDEX 01 33:38:06
TRACK 08 AUDIO
TITLE "Mass in B flat major - II. Gloria - Quoniam tu solus"
PERFORMER "Virtuosi du Praga"
INDEX 01 36:14:03
TRACK 09 AUDIO
TITLE "Mass in B flat major - III. Credo - Patrem omnipotentem -"
PERFORMER "Virtuosi du Praga"
INDEX 01 39:17:30
TRACK 10 AUDIO
TITLE "Mass in B flat major - III. Credo - Et incarnatus est -"
PERFORMER "Virtuosi du Praga"
INDEX 01 42:27:18
TRACK 11 AUDIO
TITLE "Mass in B flat major - III. Credo - Et resurrexit"
PERFORMER "Virtuosi du Praga"
INDEX 01 44:56:74
TRACK 12 AUDIO
TITLE "Mass in B flat major - IV. Sanctus"
PERFORMER "Virtuosi du Praga"
INDEX 01 48:35:18
TRACK 13 AUDIO
TITLE "Mass in B flat major - V. Benedictus"
PERFORMER "Virtuosi du Praga"
INDEX 01 49:48:23
TRACK 14 AUDIO
TITLE "Mass in B flat major - VI. Agnus Dei - Agnus Dei"
PERFORMER "Virtuosi du Praga"
INDEX 01 53:51:18
TRACK 15 AUDIO
TITLE "Mass in B flat major - VI. Agnus Dei - Dona nobis"
PERFORMER "Virtuosi du Praga"
INDEX 01 56:47:60



Показать сообщения:    

Текущее время: 05-Дек 05:32

Часовой пояс: UTC + 3


Вы не можете начинать темы
Вы не можете отвечать на сообщения
Вы не можете редактировать свои сообщения
Вы не можете удалять свои сообщения
Вы не можете голосовать в опросах
Вы не можете прикреплять файлы к сообщениям
Вы не можете скачивать файлы