(Classical) Berio · The String Quartets (Arditti String Quartet) · 2002, FLAC (tracks+.cue) lossless


 

[Цитировать]

Luciano Berio
the string quartets
Жанр: classical
Страна-производитель диска: France
Год издания диска: 2002
Издатель: Montaigne
Номер по каталогу: MO 782155
Дата записи: февраль 2002
Аудиокодек: FLAC
Тип рипа: tracks+.cue
Битрейт аудио: lossless
Продолжительность: 01:01:33
Источник: скачано с what.cd
Сканов в содержимом раздачи достаточно
Исполнители: Arditti String Quartet
Треклист:
01. Notturno (1993) (25:01)
02. Sincronie (1963–64) (18:26)
03. Glosse (1997) (9:48)
04. Quatuor n° 1 (1956) (8:17)

Лог создания рипа

Exact Audio Copy V1.0 beta 1 from 15. November 2010
EAC extraction logfile from 31. August 2011, 15:11
Arditti String Quartet / Berio: The String Quartets
Used drive : SlimtypeDVD A DS8A1P Adapter: 0 ID: 0
Read mode : Secure
Utilize accurate stream : Yes
Defeat audio cache : Yes
Make use of C2 pointers : No
Read offset correction : 594
Overread into Lead-In and Lead-Out : No
Fill up missing offset samples with silence : Yes
Delete leading and trailing silent blocks : No
Null samples used in CRC calculations : Yes
Used interface : Native Win32 interface for Win NT & 2000
Gap handling : Appended to previous track
Used output format : User Defined Encoder
Selected bitrate : 896 kBit/s
Quality : High
Add ID3 tag : No
Command line compressor : c:\Program Files\FLAC\flac.exe
Additional command line options : -V -8 -T "artist=%a" -T "title=%t" -T "album=%g" -T "date=%y" -T "tracknumber=%n" -T "genre=%m" %s
TOC of the extracted CD
Track | Start | Length | Start sector | End sector
---------------------------------------------------------
1 | 0:00.00 | 25:01.02 | 0 | 112576
2 | 25:01.02 | 18:26.25 | 112577 | 195551
3 | 43:27.27 | 9:48.20 | 195552 | 239671
4 | 53:15.47 | 8:17.05 | 239672 | 276951
Track 1
Filename f:\EACRIPS\Arditti String Quartet - 2002 - Berio- The String Quartets [flac]\01. Notturno, 1993.wav
Pre-gap length 0:00:02.00
Peak level 88.0 %
Extraction speed 1.3 X
Track quality 100.0 %
Test CRC 1F8BFF2D
Copy CRC 1F8BFF2D
Accurately ripped (confidence 2) [312A4F1C]
Copy OK
Track 2
Filename f:\EACRIPS\Arditti String Quartet - 2002 - Berio- The String Quartets [flac]\02. Sincronie, 1963-64.wav
Peak level 99.6 %
Extraction speed 1.8 X
Track quality 100.0 %
Test CRC 7702437E
Copy CRC 7702437E
Accurately ripped (confidence 2) [42BFBF99]
Copy OK
Track 3
Filename f:\EACRIPS\Arditti String Quartet - 2002 - Berio- The String Quartets [flac]\03. Glosse, 1997.wav
Peak level 95.7 %
Extraction speed 2.0 X
Track quality 100.0 %
Test CRC 8C4007C4
Copy CRC 8C4007C4
Accurately ripped (confidence 2) [395DAA54]
Copy OK
Track 4
Filename f:\EACRIPS\Arditti String Quartet - 2002 - Berio- The String Quartets [flac]\04. Quatuor n° 1, 1956.wav
Peak level 82.3 %
Extraction speed 2.1 X
Track quality 100.0 %
Test CRC A4B3BF82
Copy CRC A4B3BF82
Accurately ripped (confidence 2) [6B4046BF]
Copy OK
All tracks accurately ripped
No errors occurred
End of status report
==== Log checksum DEB3263A3A7ABCE0E8A22EA37E7B61BEEE0900D4BB50990952188666FA82652E ====

Содержание индексной карты (.CUE)

REM DATE 2002
REM DISCID 300E6C04
REM COMMENT "ExactAudioCopy v1.0b1"
PERFORMER "Arditti String Quartet"
TITLE "The String Quartets"
FILE "01. Notturno (1993).wav" WAVE
TRACK 01 AUDIO
TITLE "Notturno (1993)"
PERFORMER "Arditti String Quartet"
ISRC 0@4003846000
INDEX 01 00:00:00
FILE "02. Sincronie (1963–64).wav" WAVE
TRACK 02 AUDIO
TITLE "Sincronie (1963–64)"
PERFORMER "Arditti String Quartet"
ISRC 0@4006346000
INDEX 01 00:00:00
FILE "03. Glosse (1997).wav" WAVE
TRACK 03 AUDIO
TITLE "Glosse (1997)"
PERFORMER "Arditti String Quartet"
ISRC 0@4006346000
INDEX 01 00:00:00
FILE "04. Quatuor n° 1 (1956).wav" WAVE
TRACK 04 AUDIO
TITLE "Quatuor n° 1 (1956)"
PERFORMER "Arditti String Quartet"
ISRC 0@4006346000
INDEX 01 00:00:00



Показать сообщения:    

Текущее время: 09-Дек 22:27

Часовой пояс: UTC + 3


Вы не можете начинать темы
Вы не можете отвечать на сообщения
Вы не можете редактировать свои сообщения
Вы не можете удалять свои сообщения
Вы не можете голосовать в опросах
Вы не можете прикреплять файлы к сообщениям
Вы не можете скачивать файлы