[Udemy.com] Обучение йоге за час для начинающих / 1 hour Yoga class for beginners [2015, йога для начинающих, HDRip, ENG] (Видеоурок)


Статистика раздачи [Обновить пиров]
Размер:  1.47 GB   |    Зарегистрирован:  8 месяцев 15 дней   |    Скачан:  0 раз

Полного источника не было: 4 месяца 4 дня

 
   
 
 
 

[Цитировать]

Обучение йоге за час для начинающих / 1 hour Yoga class for beginners
Страна: США
Тематика: йога для начинающих
Тип раздаваемого материала: Видеоурок
Продолжительность: 1:01:37
Год выпуска: 2015
Язык: Английский
Перевод: Отсутствует
Описание: This course is designed to make it easy for you to start practicing Yoga on a regular basis, and get the physical and mental health benefits for which Yoga is widely known for.
In this course, Crystal Sens, who is a licensed Yoga instructor with 10 years of experience, takes you through a beginning Yoga class that you can follow along as you follow it in the course.
The other person in the course is Alex Genadinik who is an absolute Yoga beginner. If you are a beginner, you can watch what mistakes Alex makes, and see where Crystal corrects Alex. Chances are that if Alex makes some mistakes, you might make similar mistakes if you are also a beginner. And this is a good way to see what common mistakes there are so that you don't make them.
Курс по йоге, разработанный специально для неподготовленных.

Содержание

Section 1: Introduction section
1 Course introduction
2 Instructor introduction
3 Basic yoga equiment
Section 2: Starting the class
4 Initial relaxation pose and getting into our practice
5 More beginning relaxation, breathing and basic sitting posture
6 Initial twisting poses
7 Beginning table top positions
8 Balancing positions
9 Cat, cow and downward dog positions
10 Chataranga dandasana
11 Flowing into standing poses
12 Flowing into the child pose, and explanation of the child pose
13 Flowing into more standing poses & putting together things we previously did
14 Calming your heart rate
15 Flowing into more stretching, balancing and the Warrior 3 pose
16 Cooling exercises
Section 3: Conclusion
18 Bonus lecture: DISCOUNTS ON ADDITIONAL COURSES & RESOURCES - Text
Доп. информация: курс у производителя
Качество: HDRip
Формат: MP4
Видео кодек: H.264
Аудио кодек: AAC
Видео: AVC, 1280x720, 16:9, 3340kbps, 29.97fps
Аудио: AAC, 87kbps, 44.1kHz, stereo

MediaInfo

General
Complete name : C:\Udemy - 1 hour Yoga class for beginners\1_-_Introduction_section\1_-_Course_introduction.mp4
Format : MPEG-4
Format profile : Base Media
Codec ID : isom
File size : 16.7 MiB
Duration : 39s 915ms
Overall bit rate mode : Variable
Overall bit rate : 3 517 Kbps
Encoded date : UTC 2015-06-26 20:34:31
Tagged date : UTC 2015-06-26 20:34:31
Video
ID : 1
Format : AVC
Format/Info : Advanced Video Codec
Format profile : Baseline@L3.1
Format settings, CABAC : No
Format settings, ReFrames : 3 frames
Format settings, GOP : M=1, N=50
Codec ID : avc1
Codec ID/Info : Advanced Video Coding
Duration : 39s 838ms
Bit rate : 3 433 Kbps
Maximum bit rate : 3 861 Kbps
Width : 1 280 pixels
Height : 720 pixels
Display aspect ratio : 16:9
Frame rate mode : Constant
Frame rate : 29.970 fps
Color space : YUV
Chroma subsampling : 4:2:0
Bit depth : 8 bits
Scan type : Progressive
Bits/(Pixel*Frame) : 0.124
Stream size : 16.3 MiB (97%)
Writing library : Zencoder Video Encoding System
Encoded date : UTC 2015-06-26 20:34:02
Tagged date : UTC 2015-06-26 20:34:31
Color range : Limited
Color primaries : BT.709
Transfer characteristics : BT.709
Matrix coefficients : BT.709
Audio
ID : 2
Format : AAC
Format/Info : Advanced Audio Codec
Format profile : LC
Codec ID : 40
Duration : 39s 915ms
Bit rate mode : Variable
Bit rate : 87.3 Kbps
Maximum bit rate : 94.1 Kbps
Channel(s) : 2 channels
Channel positions : Front: L R
Sampling rate : 44.1 KHz
Compression mode : Lossy
Stream size : 426 KiB (2%)
Encoded date : UTC 2015-06-26 20:34:02
Tagged date : UTC 2015-06-26 20:34:31
General
Complete name : C:\Udemy - 1 hour Yoga class for beginners\1_-_Introduction_section\2_-_Instructor_introduction.mp4
Format : MPEG-4
Format profile : Base Media
Codec ID : isom
File size : 22.6 MiB
Duration : 54s 892ms
Overall bit rate mode : Variable
Overall bit rate : 3 449 Kbps
Encoded date : UTC 2015-06-26 20:40:59
Tagged date : UTC 2015-06-26 20:40:59
Video
ID : 1
Format : AVC
Format/Info : Advanced Video Codec
Format profile : Baseline@L3.1
Format settings, CABAC : No
Format settings, ReFrames : 3 frames
Format settings, GOP : M=1, N=50
Codec ID : avc1
Codec ID/Info : Advanced Video Coding
Duration : 54s 820ms
Bit rate : 3 364 Kbps
Maximum bit rate : 3 961 Kbps
Width : 1 280 pixels
Height : 720 pixels
Display aspect ratio : 16:9
Frame rate mode : Constant
Frame rate : 29.970 fps
Color space : YUV
Chroma subsampling : 4:2:0
Bit depth : 8 bits
Scan type : Progressive
Bits/(Pixel*Frame) : 0.122
Stream size : 22.0 MiB (97%)
Writing library : Zencoder Video Encoding System
Encoded date : UTC 2015-06-26 20:40:43
Tagged date : UTC 2015-06-26 20:40:59
Color range : Limited
Color primaries : BT.709
Transfer characteristics : BT.709
Matrix coefficients : BT.709
Audio
ID : 2
Format : AAC
Format/Info : Advanced Audio Codec
Format profile : LC
Codec ID : 40
Duration : 54s 892ms
Bit rate mode : Variable
Bit rate : 86.7 Kbps
Maximum bit rate : 94.4 Kbps
Channel(s) : 2 channels
Channel positions : Front: L R
Sampling rate : 44.1 KHz
Compression mode : Lossy
Stream size : 581 KiB (3%)
Encoded date : UTC 2015-06-26 20:40:43
Tagged date : UTC 2015-06-26 20:40:59
General
Complete name : C:\Udemy - 1 hour Yoga class for beginners\1_-_Introduction_section\3_-_Basic_yoga_equiment.mp4
Format : MPEG-4
Format profile : Base Media
Codec ID : isom
File size : 14.0 MiB
Duration : 33s 877ms
Overall bit rate mode : Variable
Overall bit rate : 3 465 Kbps
Encoded date : UTC 2015-06-26 20:55:37
Tagged date : UTC 2015-06-26 20:55:37
Video
ID : 1
Format : AVC
Format/Info : Advanced Video Codec
Format profile : Baseline@L3.1
Format settings, CABAC : No
Format settings, ReFrames : 3 frames
Format settings, GOP : M=1, N=50
Codec ID : avc1
Codec ID/Info : Advanced Video Coding
Duration : 33s 800ms
Bit rate : 3 384 Kbps
Maximum bit rate : 3 908 Kbps
Width : 1 280 pixels
Height : 720 pixels
Display aspect ratio : 16:9
Frame rate mode : Constant
Frame rate : 29.970 fps
Color space : YUV
Chroma subsampling : 4:2:0
Bit depth : 8 bits
Scan type : Progressive
Bits/(Pixel*Frame) : 0.123
Stream size : 13.6 MiB (97%)
Writing library : Zencoder Video Encoding System
Encoded date : UTC 2015-06-26 20:55:25
Tagged date : UTC 2015-06-26 20:55:37
Color range : Limited
Color primaries : BT.709
Transfer characteristics : BT.709
Matrix coefficients : BT.709
Audio
ID : 2
Format : AAC
Format/Info : Advanced Audio Codec
Format profile : LC
Codec ID : 40
Duration : 33s 877ms
Bit rate mode : Variable
Bit rate : 85.8 Kbps
Maximum bit rate : 91.7 Kbps
Channel(s) : 2 channels
Channel positions : Front: L R
Sampling rate : 44.1 KHz
Compression mode : Lossy
Stream size : 355 KiB (2%)
Encoded date : UTC 2015-06-26 20:55:25
Tagged date : UTC 2015-06-26 20:55:37
General
Complete name : C:\Udemy - 1 hour Yoga class for beginners\2_-_Starting_the_class\10_-_Chataranga_dandasana.mp4
Format : MPEG-4
Format profile : Base Media
Codec ID : isom
File size : 100 MiB
Duration : 4mn 8s
Overall bit rate mode : Variable
Overall bit rate : 3 372 Kbps
Encoded date : UTC 2015-06-27 01:51:09
Tagged date : UTC 2015-06-27 01:51:09
Video
ID : 1
Format : AVC
Format/Info : Advanced Video Codec
Format profile : Baseline@L3.1
Format settings, CABAC : No
Format settings, ReFrames : 3 frames
Format settings, GOP : M=1, N=50
Codec ID : avc1
Codec ID/Info : Advanced Video Coding
Duration : 4mn 8s
Bit rate : 3 283 Kbps
Maximum bit rate : 3 997 Kbps
Width : 1 280 pixels
Height : 720 pixels
Display aspect ratio : 16:9
Frame rate mode : Constant
Frame rate : 29.970 fps
Color space : YUV
Chroma subsampling : 4:2:0
Bit depth : 8 bits
Scan type : Progressive
Bits/(Pixel*Frame) : 0.119
Stream size : 97.4 MiB (97%)
Writing library : Zencoder Video Encoding System
Encoded date : UTC 2015-06-27 01:50:25
Tagged date : UTC 2015-06-27 01:51:10
Color range : Limited
Color primaries : BT.709
Transfer characteristics : BT.709
Matrix coefficients : BT.709
Audio
ID : 2
Format : AAC
Format/Info : Advanced Audio Codec
Format profile : LC
Codec ID : 40
Duration : 4mn 8s
Bit rate mode : Variable
Bit rate : 87.2 Kbps
Maximum bit rate : 95.3 Kbps
Channel(s) : 2 channels
Channel positions : Front: L R
Sampling rate : 44.1 KHz
Compression mode : Lossy
Stream size : 2.59 MiB (3%)
Encoded date : UTC 2015-06-27 01:50:25
Tagged date : UTC 2015-06-27 01:51:10
General
Complete name : C:\Udemy - 1 hour Yoga class for beginners\2_-_Starting_the_class\11_-_Flowing_into_standing_poses.mp4
Format : MPEG-4
Format profile : Base Media
Codec ID : isom
File size : 144 MiB
Duration : 5mn 48s
Overall bit rate mode : Variable
Overall bit rate : 3 456 Kbps
Encoded date : UTC 2015-06-27 02:34:12
Tagged date : UTC 2015-06-27 02:34:12
Video
ID : 1
Format : AVC
Format/Info : Advanced Video Codec
Format profile : Baseline@L3.1
Format settings, CABAC : No
Format settings, ReFrames : 3 frames
Format settings, GOP : M=1, N=50
Codec ID : avc1
Codec ID/Info : Advanced Video Coding
Duration : 5mn 48s
Bit rate : 3 367 Kbps
Maximum bit rate : 4 400 Kbps
Width : 1 280 pixels
Height : 720 pixels
Display aspect ratio : 16:9
Frame rate mode : Constant
Frame rate : 29.970 fps
Color space : YUV
Chroma subsampling : 4:2:0
Bit depth : 8 bits
Scan type : Progressive
Bits/(Pixel*Frame) : 0.122
Stream size : 140 MiB (97%)
Writing library : Zencoder Video Encoding System
Encoded date : UTC 2015-06-27 02:33:20
Tagged date : UTC 2015-06-27 02:34:12
Color range : Limited
Color primaries : BT.709
Transfer characteristics : BT.709
Matrix coefficients : BT.709
Audio
ID : 2
Format : AAC
Format/Info : Advanced Audio Codec
Format profile : LC
Codec ID : 40
Duration : 5mn 48s
Bit rate mode : Variable
Bit rate : 87.1 Kbps
Maximum bit rate : 96.6 Kbps
Channel(s) : 2 channels
Channel positions : Front: L R
Sampling rate : 44.1 KHz
Compression mode : Lossy
Stream size : 3.62 MiB (3%)
Encoded date : UTC 2015-06-27 02:33:20
Tagged date : UTC 2015-06-27 02:34:12
General
Complete name : C:\Udemy - 1 hour Yoga class for beginners\2_-_Starting_the_class\12_-_Flowing_into_the_child_pose_and_explanation_of_the_child_pose.mp4
Format : MPEG-4
Format profile : Base Media
Codec ID : isom
File size : 29.0 MiB
Duration : 1mn 14s
Overall bit rate mode : Variable
Overall bit rate : 3 272 Kbps
Encoded date : UTC 2015-06-27 02:24:51
Tagged date : UTC 2015-06-27 02:24:51
Video
ID : 1
Format : AVC
Format/Info : Advanced Video Codec
Format profile : Baseline@L3.1
Format settings, CABAC : No
Format settings, ReFrames : 3 frames
Format settings, GOP : M=1, N=50
Codec ID : avc1
Codec ID/Info : Advanced Video Coding
Duration : 1mn 14s
Bit rate : 3 185 Kbps
Maximum bit rate : 3 613 Kbps
Width : 1 280 pixels
Height : 720 pixels
Display aspect ratio : 16:9
Frame rate mode : Constant
Frame rate : 29.970 fps
Color space : YUV
Chroma subsampling : 4:2:0
Bit depth : 8 bits
Scan type : Progressive
Bits/(Pixel*Frame) : 0.115
Stream size : 28.2 MiB (97%)
Writing library : Zencoder Video Encoding System
Encoded date : UTC 2015-06-27 02:24:39
Tagged date : UTC 2015-06-27 02:24:51
Color range : Limited
Color primaries : BT.709
Transfer characteristics : BT.709
Matrix coefficients : BT.709
Audio
ID : 2
Format : AAC
Format/Info : Advanced Audio Codec
Format profile : LC
Codec ID : 40
Duration : 1mn 14s
Bit rate mode : Variable
Bit rate : 87.0 Kbps
Maximum bit rate : 95.7 Kbps
Channel(s) : 2 channels
Channel positions : Front: L R
Sampling rate : 44.1 KHz
Compression mode : Lossy
Stream size : 790 KiB (3%)
Encoded date : UTC 2015-06-27 02:24:39
Tagged date : UTC 2015-06-27 02:24:51
General
Complete name : C:\Udemy - 1 hour Yoga class for beginners\2_-_Starting_the_class\13_-_Flowing_into_more_standing_poses_and_putting_together_things_we_previously_did.mp4
Format : MPEG-4
Format profile : Base Media
Codec ID : isom
File size : 290 MiB
Duration : 11mn 49s
Overall bit rate mode : Variable
Overall bit rate : 3 429 Kbps
Encoded date : UTC 2015-06-27 03:20:32
Tagged date : UTC 2015-06-27 03:20:32
Video
ID : 1
Format : AVC
Format/Info : Advanced Video Codec
Format profile : Baseline@L3.1
Format settings, CABAC : No
Format settings, ReFrames : 3 frames
Format settings, GOP : M=1, N=50
Codec ID : avc1
Codec ID/Info : Advanced Video Coding
Duration : 11mn 49s
Bit rate : 3 340 Kbps
Maximum bit rate : 4 147 Kbps
Width : 1 280 pixels
Height : 720 pixels
Display aspect ratio : 16:9
Frame rate mode : Constant
Frame rate : 29.970 fps
Color space : YUV
Chroma subsampling : 4:2:0
Bit depth : 8 bits
Scan type : Progressive
Bits/(Pixel*Frame) : 0.121
Stream size : 282 MiB (97%)
Writing library : Zencoder Video Encoding System
Encoded date : UTC 2015-06-27 03:18:12
Tagged date : UTC 2015-06-27 03:20:32
Color range : Limited
Color primaries : BT.709
Transfer characteristics : BT.709
Matrix coefficients : BT.709
Audio
ID : 2
Format : AAC
Format/Info : Advanced Audio Codec
Format profile : LC
Codec ID : 40
Duration : 11mn 49s
Bit rate mode : Variable
Bit rate : 87.1 Kbps
Maximum bit rate : 95.3 Kbps
Channel(s) : 2 channels
Channel positions : Front: L R
Sampling rate : 44.1 KHz
Compression mode : Lossy
Stream size : 7.36 MiB (3%)
Encoded date : UTC 2015-06-27 03:18:12
Tagged date : UTC 2015-06-27 03:20:32
General
Complete name : C:\Udemy - 1 hour Yoga class for beginners\2_-_Starting_the_class\14_-_Calming_your_heart_rate.mp4
Format : MPEG-4
Format profile : Base Media
Codec ID : isom
File size : 65.4 MiB
Duration : 2mn 33s
Overall bit rate mode : Variable
Overall bit rate : 3 566 Kbps
Encoded date : UTC 2015-06-27 02:59:39
Tagged date : UTC 2015-06-27 02:59:39
Video
ID : 1
Format : AVC
Format/Info : Advanced Video Codec
Format profile : Baseline@L3.1
Format settings, CABAC : No
Format settings, ReFrames : 3 frames
Format settings, GOP : M=1, N=50
Codec ID : avc1
Codec ID/Info : Advanced Video Coding
Duration : 2mn 33s
Bit rate : 3 477 Kbps
Maximum bit rate : 4 099 Kbps
Width : 1 280 pixels
Height : 720 pixels
Display aspect ratio : 16:9
Frame rate mode : Constant
Frame rate : 29.970 fps
Color space : YUV
Chroma subsampling : 4:2:0
Bit depth : 8 bits
Scan type : Progressive
Bits/(Pixel*Frame) : 0.126
Stream size : 63.8 MiB (97%)
Writing library : Zencoder Video Encoding System
Encoded date : UTC 2015-06-27 02:59:08
Tagged date : UTC 2015-06-27 02:59:39
Color range : Limited
Color primaries : BT.709
Transfer characteristics : BT.709
Matrix coefficients : BT.709
Audio
ID : 2
Format : AAC
Format/Info : Advanced Audio Codec
Format profile : LC
Codec ID : 40
Duration : 2mn 33s
Bit rate mode : Variable
Bit rate : 87.8 Kbps
Maximum bit rate : 96.7 Kbps
Channel(s) : 2 channels
Channel positions : Front: L R
Sampling rate : 44.1 KHz
Compression mode : Lossy
Stream size : 1.61 MiB (2%)
Encoded date : UTC 2015-06-27 02:59:08
Tagged date : UTC 2015-06-27 02:59:39
General
Complete name : C:\Udemy - 1 hour Yoga class for beginners\2_-_Starting_the_class\15_-_Flowing_into_more_stretching_balancing_and_the_Warrior_3_pose.mp4
Format : MPEG-4
Format profile : Base Media
Codec ID : isom
File size : 137 MiB
Duration : 5mn 22s
Overall bit rate mode : Variable
Overall bit rate : 3 563 Kbps
Encoded date : UTC 2015-06-27 04:04:08
Tagged date : UTC 2015-06-27 04:04:08
Video
ID : 1
Format : AVC
Format/Info : Advanced Video Codec
Format profile : Baseline@L3.1
Format settings, CABAC : No
Format settings, ReFrames : 3 frames
Format settings, GOP : M=1, N=50
Codec ID : avc1
Codec ID/Info : Advanced Video Coding
Duration : 5mn 21s
Bit rate : 3 475 Kbps
Maximum bit rate : 4 078 Kbps
Width : 1 280 pixels
Height : 720 pixels
Display aspect ratio : 16:9
Frame rate mode : Constant
Frame rate : 29.970 fps
Color space : YUV
Chroma subsampling : 4:2:0
Bit depth : 8 bits
Scan type : Progressive
Bits/(Pixel*Frame) : 0.126
Stream size : 133 MiB (97%)
Writing library : Zencoder Video Encoding System
Encoded date : UTC 2015-06-27 04:02:53
Tagged date : UTC 2015-06-27 04:04:09
Color range : Limited
Color primaries : BT.709
Transfer characteristics : BT.709
Matrix coefficients : BT.709
Audio
ID : 2
Format : AAC
Format/Info : Advanced Audio Codec
Format profile : LC
Codec ID : 40
Duration : 5mn 22s
Bit rate mode : Variable
Bit rate : 86.9 Kbps
Maximum bit rate : 96.1 Kbps
Channel(s) : 2 channels
Channel positions : Front: L R
Sampling rate : 44.1 KHz
Compression mode : Lossy
Stream size : 3.34 MiB (2%)
Encoded date : UTC 2015-06-27 04:02:53
Tagged date : UTC 2015-06-27 04:04:09
General
Complete name : C:\Udemy - 1 hour Yoga class for beginners\2_-_Starting_the_class\16_-_Cooling_exercises.mp4
Format : MPEG-4
Format profile : Base Media
Codec ID : isom
File size : 124 MiB
Duration : 5mn 18s
Overall bit rate mode : Variable
Overall bit rate : 3 277 Kbps
Encoded date : UTC 2015-06-27 13:47:12
Tagged date : UTC 2015-06-27 13:47:12
Video
ID : 1
Format : AVC
Format/Info : Advanced Video Codec
Format profile : Baseline@L3.1
Format settings, CABAC : No
Format settings, ReFrames : 3 frames
Format settings, GOP : M=1, N=50
Codec ID : avc1
Codec ID/Info : Advanced Video Coding
Duration : 5mn 18s
Bit rate : 3 186 Kbps
Maximum bit rate : 3 902 Kbps
Width : 1 280 pixels
Height : 720 pixels
Display aspect ratio : 16:9
Frame rate mode : Constant
Frame rate : 29.970 fps
Color space : YUV
Chroma subsampling : 4:2:0
Bit depth : 8 bits
Scan type : Progressive
Bits/(Pixel*Frame) : 0.115
Stream size : 121 MiB (97%)
Writing library : Zencoder Video Encoding System
Encoded date : UTC 2015-06-27 13:46:06
Tagged date : UTC 2015-06-27 13:47:12
Color range : Limited
Color primaries : BT.709
Transfer characteristics : BT.709
Matrix coefficients : BT.709
Audio
ID : 2
Format : AAC
Format/Info : Advanced Audio Codec
Format profile : LC
Codec ID : 40
Duration : 5mn 18s
Bit rate mode : Variable
Bit rate : 88.9 Kbps
Maximum bit rate : 96.9 Kbps
Channel(s) : 2 channels
Channel positions : Front: L R
Sampling rate : 44.1 KHz
Compression mode : Lossy
Stream size : 3.37 MiB (3%)
Encoded date : UTC 2015-06-27 13:46:06
Tagged date : UTC 2015-06-27 13:47:12
General
Complete name : C:\Udemy - 1 hour Yoga class for beginners\2_-_Starting_the_class\4_-_Initial_relaxation_pose_and_getting_into_our_practice.mp4
Format : MPEG-4
Format profile : Base Media
Codec ID : isom
File size : 42.9 MiB
Duration : 1mn 47s
Overall bit rate mode : Variable
Overall bit rate : 3 353 Kbps
Encoded date : UTC 2015-06-26 21:50:03
Tagged date : UTC 2015-06-26 21:50:03
Video
ID : 1
Format : AVC
Format/Info : Advanced Video Codec
Format profile : Baseline@L3.1
Format settings, CABAC : No
Format settings, ReFrames : 3 frames
Format settings, GOP : M=1, N=50
Codec ID : avc1
Codec ID/Info : Advanced Video Coding
Duration : 1mn 47s
Bit rate : 3 266 Kbps
Maximum bit rate : 4 141 Kbps
Width : 1 280 pixels
Height : 720 pixels
Display aspect ratio : 16:9
Frame rate mode : Constant
Frame rate : 29.970 fps
Color space : YUV
Chroma subsampling : 4:2:0
Bit depth : 8 bits
Scan type : Progressive
Bits/(Pixel*Frame) : 0.118
Stream size : 41.8 MiB (97%)
Writing library : Zencoder Video Encoding System
Encoded date : UTC 2015-06-26 21:49:43
Tagged date : UTC 2015-06-26 21:50:03
Color range : Limited
Color primaries : BT.709
Transfer characteristics : BT.709
Matrix coefficients : BT.709
Audio
ID : 2
Format : AAC
Format/Info : Advanced Audio Codec
Format profile : LC
Codec ID : 40
Duration : 1mn 47s
Bit rate mode : Variable
Bit rate : 86.9 Kbps
Maximum bit rate : 94.8 Kbps
Channel(s) : 2 channels
Channel positions : Front: L R
Sampling rate : 44.1 KHz
Compression mode : Lossy
Stream size : 1.11 MiB (3%)
Encoded date : UTC 2015-06-26 21:49:43
Tagged date : UTC 2015-06-26 21:50:03
General
Complete name : C:\Udemy - 1 hour Yoga class for beginners\2_-_Starting_the_class\5_-_More_beginning_relaxation_breathing_and_basic_sitting_posture.mp4
Format : MPEG-4
Format profile : Base Media
Codec ID : isom
File size : 101 MiB
Duration : 4mn 14s
Overall bit rate mode : Variable
Overall bit rate : 3 328 Kbps
Encoded date : UTC 2015-06-26 22:48:25
Tagged date : UTC 2015-06-26 22:48:25
Video
ID : 1
Format : AVC
Format/Info : Advanced Video Codec
Format profile : Baseline@L3.1
Format settings, CABAC : No
Format settings, ReFrames : 3 frames
Format settings, GOP : M=1, N=50
Codec ID : avc1
Codec ID/Info : Advanced Video Coding
Duration : 4mn 14s
Bit rate : 3 240 Kbps
Maximum bit rate : 3 809 Kbps
Width : 1 280 pixels
Height : 720 pixels
Display aspect ratio : 16:9
Frame rate mode : Constant
Frame rate : 29.970 fps
Color space : YUV
Chroma subsampling : 4:2:0
Bit depth : 8 bits
Scan type : Progressive
Bits/(Pixel*Frame) : 0.117
Stream size : 98.2 MiB (97%)
Writing library : Zencoder Video Encoding System
Encoded date : UTC 2015-06-26 22:47:24
Tagged date : UTC 2015-06-26 22:48:25
Color range : Limited
Color primaries : BT.709
Transfer characteristics : BT.709
Matrix coefficients : BT.709
Audio
ID : 2
Format : AAC
Format/Info : Advanced Audio Codec
Format profile : LC
Codec ID : 40
Duration : 4mn 14s
Bit rate mode : Variable
Bit rate : 86.5 Kbps
Maximum bit rate : 95.4 Kbps
Channel(s) : 2 channels
Channel positions : Front: L R
Sampling rate : 44.1 KHz
Compression mode : Lossy
Stream size : 2.62 MiB (3%)
Encoded date : UTC 2015-06-26 22:47:24
Tagged date : UTC 2015-06-26 22:48:25
General
Complete name : C:\Udemy - 1 hour Yoga class for beginners\2_-_Starting_the_class\6_-_Initial_twisting_poses.mp4
Format : MPEG-4
Format profile : Base Media
Codec ID : isom
File size : 69.9 MiB
Duration : 2mn 58s
Overall bit rate mode : Variable
Overall bit rate : 3 291 Kbps
Encoded date : UTC 2015-06-26 23:00:26
Tagged date : UTC 2015-06-26 23:00:26
Video
ID : 1
Format : AVC
Format/Info : Advanced Video Codec
Format profile : Baseline@L3.1
Format settings, CABAC : No
Format settings, ReFrames : 3 frames
Format settings, GOP : M=1, N=50
Codec ID : avc1
Codec ID/Info : Advanced Video Coding
Duration : 2mn 58s
Bit rate : 3 203 Kbps
Maximum bit rate : 3 796 Kbps
Width : 1 280 pixels
Height : 720 pixels
Display aspect ratio : 16:9
Frame rate mode : Constant
Frame rate : 29.970 fps
Color space : YUV
Chroma subsampling : 4:2:0
Bit depth : 8 bits
Scan type : Progressive
Bits/(Pixel*Frame) : 0.116
Stream size : 68.0 MiB (97%)
Writing library : Zencoder Video Encoding System
Encoded date : UTC 2015-06-26 22:59:42
Tagged date : UTC 2015-06-26 23:00:26
Color range : Limited
Color primaries : BT.709
Transfer characteristics : BT.709
Matrix coefficients : BT.709
Audio
ID : 2
Format : AAC
Format/Info : Advanced Audio Codec
Format profile : LC
Codec ID : 40
Duration : 2mn 58s
Bit rate mode : Variable
Bit rate : 87.0 Kbps
Maximum bit rate : 94.9 Kbps
Channel(s) : 2 channels
Channel positions : Front: L R
Sampling rate : 44.1 KHz
Compression mode : Lossy
Stream size : 1.85 MiB (3%)
Encoded date : UTC 2015-06-26 22:59:41
Tagged date : UTC 2015-06-26 23:00:26
General
Complete name : C:\Udemy - 1 hour Yoga class for beginners\2_-_Starting_the_class\7_-_Beginning_table_top_positions.mp4
Format : MPEG-4
Format profile : Base Media
Codec ID : isom
File size : 192 MiB
Duration : 7mn 52s
Overall bit rate mode : Variable
Overall bit rate : 3 403 Kbps
Encoded date : UTC 2015-06-27 00:04:26
Tagged date : UTC 2015-06-27 00:04:26
Video
ID : 1
Format : AVC
Format/Info : Advanced Video Codec
Format profile : Baseline@L3.1
Format settings, CABAC : No
Format settings, ReFrames : 3 frames
Format settings, GOP : M=1, N=50
Codec ID : avc1
Codec ID/Info : Advanced Video Coding
Duration : 7mn 52s
Bit rate : 3 313 Kbps
Maximum bit rate : 3 930 Kbps
Width : 1 280 pixels
Height : 720 pixels
Display aspect ratio : 16:9
Frame rate mode : Constant
Frame rate : 29.970 fps
Color space : YUV
Chroma subsampling : 4:2:0
Bit depth : 8 bits
Scan type : Progressive
Bits/(Pixel*Frame) : 0.120
Stream size : 187 MiB (97%)
Writing library : Zencoder Video Encoding System
Encoded date : UTC 2015-06-27 00:03:08
Tagged date : UTC 2015-06-27 00:04:27
Color range : Limited
Color primaries : BT.709
Transfer characteristics : BT.709
Matrix coefficients : BT.709
Audio
ID : 2
Format : AAC
Format/Info : Advanced Audio Codec
Format profile : LC
Codec ID : 40
Duration : 7mn 52s
Bit rate mode : Variable
Bit rate : 87.5 Kbps
Maximum bit rate : 98.8 Kbps
Channel(s) : 2 channels
Channel positions : Front: L R
Sampling rate : 44.1 KHz
Compression mode : Lossy
Stream size : 4.93 MiB (3%)
Encoded date : UTC 2015-06-27 00:03:08
Tagged date : UTC 2015-06-27 00:04:27
General
Complete name : C:\Udemy - 1 hour Yoga class for beginners\2_-_Starting_the_class\8_-_Balancing_positions.mp4
Format : MPEG-4
Format profile : Base Media
Codec ID : isom
File size : 64.8 MiB
Duration : 2mn 39s
Overall bit rate mode : Variable
Overall bit rate : 3 410 Kbps
Encoded date : UTC 2015-06-26 23:52:14
Tagged date : UTC 2015-06-26 23:52:14
Video
ID : 1
Format : AVC
Format/Info : Advanced Video Codec
Format profile : Baseline@L3.1
Format settings, CABAC : No
Format settings, ReFrames : 3 frames
Format settings, GOP : M=1, N=50
Codec ID : avc1
Codec ID/Info : Advanced Video Coding
Duration : 2mn 39s
Bit rate : 3 322 Kbps
Maximum bit rate : 3 996 Kbps
Width : 1 280 pixels
Height : 720 pixels
Display aspect ratio : 16:9
Frame rate mode : Constant
Frame rate : 29.970 fps
Color space : YUV
Chroma subsampling : 4:2:0
Bit depth : 8 bits
Scan type : Progressive
Bits/(Pixel*Frame) : 0.120
Stream size : 63.1 MiB (97%)
Writing library : Zencoder Video Encoding System
Encoded date : UTC 2015-06-26 23:51:52
Tagged date : UTC 2015-06-26 23:52:14
Color range : Limited
Color primaries : BT.709
Transfer characteristics : BT.709
Matrix coefficients : BT.709
Audio
ID : 2
Format : AAC
Format/Info : Advanced Audio Codec
Format profile : LC
Codec ID : 40
Duration : 2mn 39s
Bit rate mode : Variable
Bit rate : 86.8 Kbps
Maximum bit rate : 95.7 Kbps
Channel(s) : 2 channels
Channel positions : Front: L R
Sampling rate : 44.1 KHz
Compression mode : Lossy
Stream size : 1.65 MiB (3%)
Encoded date : UTC 2015-06-26 23:51:52
Tagged date : UTC 2015-06-26 23:52:14
General
Complete name : C:\Udemy - 1 hour Yoga class for beginners\2_-_Starting_the_class\9_-_Cat_cow_and_downward_dog_positions.mp4
Format : MPEG-4
Format profile : Base Media
Codec ID : isom
File size : 88.5 MiB
Duration : 3mn 41s
Overall bit rate mode : Variable
Overall bit rate : 3 345 Kbps
Encoded date : UTC 2015-06-27 00:06:22
Tagged date : UTC 2015-06-27 00:06:22
Video
ID : 1
Format : AVC
Format/Info : Advanced Video Codec
Format profile : Baseline@L3.1
Format settings, CABAC : No
Format settings, ReFrames : 3 frames
Format settings, GOP : M=1, N=50
Codec ID : avc1
Codec ID/Info : Advanced Video Coding
Duration : 3mn 41s
Bit rate : 3 257 Kbps
Maximum bit rate : 3 751 Kbps
Width : 1 280 pixels
Height : 720 pixels
Display aspect ratio : 16:9
Frame rate mode : Constant
Frame rate : 29.970 fps
Color space : YUV
Chroma subsampling : 4:2:0
Bit depth : 8 bits
Scan type : Progressive
Bits/(Pixel*Frame) : 0.118
Stream size : 86.1 MiB (97%)
Writing library : Zencoder Video Encoding System
Encoded date : UTC 2015-06-27 00:05:42
Tagged date : UTC 2015-06-27 00:06:22
Color range : Limited
Color primaries : BT.709
Transfer characteristics : BT.709
Matrix coefficients : BT.709
Audio
ID : 2
Format : AAC
Format/Info : Advanced Audio Codec
Format profile : LC
Codec ID : 40
Duration : 3mn 41s
Bit rate mode : Variable
Bit rate : 86.5 Kbps
Maximum bit rate : 94.8 Kbps
Channel(s) : 2 channels
Channel positions : Front: L R
Sampling rate : 44.1 KHz
Compression mode : Lossy
Stream size : 2.29 MiB (3%)
Encoded date : UTC 2015-06-27 00:05:42
Tagged date : UTC 2015-06-27 00:06:22
General
Complete name : C:\Udemy - 1 hour Yoga class for beginners\3_-_Conclusion\17_-_Conclusion.txt
File size : 174 Bytes

Скриншоты

[teatrix.ru].t21698.torrent 
Торрент: Зарегистрирован [ 2016-03-20 12:55 ] · E643A538AD922BD2074CB6F20A73988BFC530E10

Скачать .torrent

Скачать

31 KB

Статус: проверено
Скачан: 0 раз
Размер: 1.47 GB
terms.php



Быстрый ответ

Имя:

      
Для отправки сообщений необходимо включить JavaScript
Показать сообщения:    

Текущее время: 04-Дек 15:18

Часовой пояс: UTC + 3


Вы можете начинать темы
Вы можете отвечать на сообщения
Вы не можете редактировать свои сообщения
Вы не можете удалять свои сообщения
Вы не можете голосовать в опросах
Вы не можете прикреплять файлы к сообщениям
Вы можете скачивать файлы