(Classical) Birds on fire | Jewish Music For Viols: Gough, Rossi, Kellim, Duarte, Lupo, Van Wilder, Bassano (Fretwork) · 2008, FLAC (tracks+.cue) lossless


 

[Цитировать]

Birds on fire
Jewish Music For Viols
Жанр: classical
Страна-производитель диска: USA
Год издания диска: 2008
Издатель: Harmonia Mundi
Номер по каталогу: HMU 907478
Дата записи: март 2007
Аудиокодек: FLAC
Тип рипа: tracks+.cue
Битрейт аудио: lossless
Продолжительность: 01:14:50
Источник: скачано с what.cd
Сканов в содержимом раздачи малость
Исполнители: Fretwork

Треклист

Композиторы: Orlando Gough (1, 13, 24), Salamone Rossi (2, 25), Anonymous (3–6, 9), Albert Kellim (7–8), Leonora Duarte (10–11), Thomas Lupo (12, 15–17, 22–23), Phillip Van Wilder (14), Augustine Bassano (18–19), Hyeronimus Bassano (20), Joseph Lupo (21)
01. Birds on Fire [1] (5:53)
02. Hashkivénu (3:01)
Pieces from the Lumley Part Books
03. Desperada (1:04)
04. Pavana (1:13)
05. Gallyard (1:07)
06. Seconda Desperada (1:32)
07. Pavin (1:25)
08. Gallyard (0:43)
09. Terza Desperada (1:19)
10. Sinfonia in 5 parts No. 5 (2:20)
11. Sinfonia in 5 parts No. 6 (1:54)
12. Fantasia in 6 parts No. 1 (4:05)
13. Birds on Fire [2] (7:36)
14. Fantasia con pause e senza pause (3:41)
15. Pavan in 3 parts No. 26 (2:56)
16. Fantasia [Air] in 4 parts No. 5 (2:01)
17. Fahntasia in 6 parts No. 9 (3:50)
18. Pavan No. 1 (2:03)
19. Galliard No. 1 (1:07)
20. Fantasia No. 1 (3:05)
21. Pavana a 5 (2:20)
22. Fantasia in 6 parts No. 4 (3:41)
23. Fantasia in 6 parts No. 11 (3:25)
24. Birds on Fire [3] (10:27)
25. Shir Hamma‘alót (3:02)

Лог создания рипа

Exact Audio Copy V1.0 beta 1 from 15. November 2010
EAC extraction logfile from 14. April 2011, 14:46
Fretwork / Birds on Fire
Used drive : _NEC DVD_RW ND-3520A Adapter: 0 ID: 0
Read mode : Secure
Utilize accurate stream : Yes
Defeat audio cache : Yes
Make use of C2 pointers : No
Read offset correction : 48
Overread into Lead-In and Lead-Out : No
Fill up missing offset samples with silence : Yes
Delete leading and trailing silent blocks : No
Null samples used in CRC calculations : Yes
Used interface : Native Win32 interface for Win NT & 2000
Gap handling : Appended to previous track
Used output format : User Defined Encoder
Selected bitrate : 768 kBit/s
Quality : High
Add ID3 tag : No
Command line compressor : C:\Program Files (x86)\flac encoder 1.2.1\bin\flac.exe
Additional command line options : -V -8 -T "artist=%a" -T "title=%t" -T "album=%g" -T "date=%y" -T "tracknumber=%n" -T "genre=%m" %s
TOC of the extracted CD
Track | Start | Length | Start sector | End sector
---------------------------------------------------------
1 | 0:00.00 | 5:52.66 | 0 | 26465
2 | 5:52.66 | 3:01.16 | 26466 | 40056
3 | 8:54.07 | 1:03.51 | 40057 | 44832
4 | 9:57.58 | 1:13.23 | 44833 | 50330
5 | 11:11.06 | 1:06.70 | 50331 | 55350
6 | 12:18.01 | 1:32.37 | 55351 | 62287
7 | 13:50.38 | 1:24.59 | 62288 | 68646
8 | 15:15.22 | 0:42.50 | 68647 | 71846
9 | 15:57.72 | 1:19.23 | 71847 | 77794
10 | 17:17.20 | 2:19.60 | 77795 | 88279
11 | 19:37.05 | 1:53.67 | 88280 | 96821
12 | 21:30.72 | 4:04.70 | 96822 | 115191
13 | 25:35.67 | 7:36.10 | 115192 | 149401
14 | 33:12.02 | 3:40.44 | 149402 | 165945
15 | 36:52.46 | 2:56.27 | 165946 | 179172
16 | 39:48.73 | 2:01.22 | 179173 | 188269
17 | 41:50.20 | 3:50.07 | 188270 | 205526
18 | 45:40.27 | 2:03.33 | 205527 | 214784
19 | 47:43.60 | 1:07.03 | 214785 | 219812
20 | 48:50.63 | 3:05.02 | 219813 | 233689
21 | 51:55.65 | 2:19.49 | 233690 | 244163
22 | 54:15.39 | 3:40.61 | 244164 | 260724
23 | 57:56.25 | 3:24.58 | 260725 | 276082
24 | 61:21.08 | 10:26.70 | 276083 | 323102
25 | 71:48.03 | 3:01.73 | 323103 | 336750
Track 1
Filename F:\rips\Fretwork - Birds on Fire (2008) FLAC\01 Orlando Gough , Birds on Fire 1.wav
Pre-gap length 0:00:02.00
Peak level 82.8 %
Extraction speed 4.2 X
Track quality 100.0 %
Test CRC 8A54131E
Copy CRC 8A54131E
Accurately ripped (confidence 4) [EE776375]
Copy OK
Track 2
Filename F:\rips\Fretwork - Birds on Fire (2008) FLAC\02 Salamone Rossi ''Ebreo'' , Hashkivenu.wav
Peak level 60.1 %
Extraction speed 4.2 X
Track quality 100.0 %
Test CRC 3158A89B
Copy CRC 3158A89B
Accurately ripped (confidence 4) [C1DBFE89]
Copy OK
Track 3
Filename F:\rips\Fretwork - Birds on Fire (2008) FLAC\03 Anon (Lumley Part Books) , Desperada.wav
Peak level 38.2 %
Extraction speed 3.1 X
Track quality 100.0 %
Test CRC F69EE9DB
Copy CRC F69EE9DB
Accurately ripped (confidence 4) [D3F0D3CE]
Copy OK
Track 4
Filename F:\rips\Fretwork - Birds on Fire (2008) FLAC\04 Anon (Lumley Part Books) , Pavana.wav
Peak level 37.9 %
Extraction speed 3.4 X
Track quality 100.0 %
Test CRC B04E5A92
Copy CRC B04E5A92
Accurately ripped (confidence 4) [7A1760B1]
Copy OK
Track 5
Filename F:\rips\Fretwork - Birds on Fire (2008) FLAC\05 Anon (Lumley Part Books) , Gallyard.wav
Peak level 32.7 %
Extraction speed 3.3 X
Track quality 100.0 %
Test CRC 21C6902F
Copy CRC 21C6902F
Accurately ripped (confidence 4) [CC44B7AB]
Copy OK
Track 6
Filename F:\rips\Fretwork - Birds on Fire (2008) FLAC\06 Anon (Lumley Part Books) , Seconda Desperada.wav
Peak level 30.6 %
Extraction speed 3.8 X
Track quality 100.0 %
Test CRC 8B4930C9
Copy CRC 8B4930C9
Accurately ripped (confidence 4) [225A6984]
Copy OK
Track 7
Filename F:\rips\Fretwork - Birds on Fire (2008) FLAC\07 Albert Kellim , Pavin.wav
Peak level 32.7 %
Extraction speed 3.8 X
Track quality 100.0 %
Test CRC 7B13B9B4
Copy CRC 7B13B9B4
Accurately ripped (confidence 4) [1691C71D]
Copy OK
Track 8
Filename F:\rips\Fretwork - Birds on Fire (2008) FLAC\08 Albert Kellim , Gallyard.wav
Copy aborted
Track 9
Filename F:\rips\Fretwork - Birds on Fire (2008) FLAC\09 Albert Kellim , Terza Desperada.wav
Copy aborted
Track 10
Filename F:\rips\Fretwork - Birds on Fire (2008) FLAC\10 Leonora Duarte , Sinfonia in 5 parts No 5.wav
Peak level 27.2 %
Extraction speed 3.5 X
Track quality 99.9 %
Test CRC A1A8E147
Copy CRC A1A8E147
Accurately ripped (confidence 4) [124E3A7F]
Copy OK
Track 11
Filename F:\rips\Fretwork - Birds on Fire (2008) FLAC\11 Leonora Duarte , Sinfonia in 5 parts No 6.wav
Peak level 60.7 %
Extraction speed 3.2 X
Track quality 99.9 %
Test CRC BA44496E
Copy CRC BA44496E
Accurately ripped (confidence 4) [77D4EADE]
Copy OK
Track 12
Filename F:\rips\Fretwork - Birds on Fire (2008) FLAC\12 Thomas Lupo , Fantasia in 6 parts.wav
Peak level 56.7 %
Extraction speed 5.6 X
Track quality 100.0 %
Test CRC 8028E886
Copy CRC 8028E886
Accurately ripped (confidence 4) [376C5C47]
Copy OK
Track 13
Filename F:\rips\Fretwork - Birds on Fire (2008) FLAC\13 Orlando Gough , Birds on Fire 2.wav
Peak level 79.3 %
Extraction speed 6.6 X
Track quality 100.0 %
Test CRC 626A377F
Copy CRC 626A377F
Accurately ripped (confidence 4) [6CA724BC]
Copy OK
Track 14
Filename F:\rips\Fretwork - Birds on Fire (2008) FLAC\14 Phillip van Wilder , Fantasia con pause e senza pause.wav
Peak level 29.4 %
Extraction speed 6.5 X
Track quality 100.0 %
Test CRC 0872EC12
Copy CRC 0872EC12
Accurately ripped (confidence 4) [BFA4A462]
Copy OK
Track 15
Filename F:\rips\Fretwork - Birds on Fire (2008) FLAC\15 Thomas Lupo , Pavan in 3 parts No 26.wav
Peak level 38.2 %
Extraction speed 2.2 X
Track quality 100.0 %
Test CRC 3C20B041
Copy CRC 3C20B041
Accurately ripped (confidence 4) [E9FAC43A]
Copy OK
Track 16
Filename F:\rips\Fretwork - Birds on Fire (2008) FLAC\16 Thomas Lupo , Fantasia (air) in 4 parts No 5.wav
Peak level 54.9 %
Extraction speed 1.5 X
Track quality 99.9 %
Test CRC BB6EFA23
Copy CRC BB6EFA23
Accurately ripped (confidence 4) [F174DD73]
Copy OK
Track 17
Filename F:\rips\Fretwork - Birds on Fire (2008) FLAC\17 Thomas Lupo , Fahntasia in 6 parts No 9.wav
Peak level 61.6 %
Extraction speed 7.0 X
Track quality 100.0 %
Test CRC B8366461
Copy CRC B8366461
Accurately ripped (confidence 4) [F9783F78]
Copy OK
Track 18
Filename F:\rips\Fretwork - Birds on Fire (2008) FLAC\18 Augustine Bassano , Pavan No 1.wav
Peak level 51.9 %
Extraction speed 6.3 X
Track quality 100.0 %
Test CRC 6584F30A
Copy CRC 6584F30A
Accurately ripped (confidence 4) [29F7ADD2]
Copy OK
Track 19
Filename F:\rips\Fretwork - Birds on Fire (2008) FLAC\19 Augustine Bassano , Galliard No 1.wav
Peak level 30.7 %
Extraction speed 5.2 X
Track quality 100.0 %
Test CRC FCE798AD
Copy CRC FCE798AD
Accurately ripped (confidence 4) [E30B52AB]
Copy OK
Track 20
Filename F:\rips\Fretwork - Birds on Fire (2008) FLAC\20 Heironymus Bassano , Fantasia No 1.wav
Peak level 45.7 %
Extraction speed 2.4 X
Track quality 100.0 %
Test CRC D71D2823
Copy CRC D71D2823
Accurately ripped (confidence 4) [404FD7F1]
Copy OK
Track 21
Filename F:\rips\Fretwork - Birds on Fire (2008) FLAC\21 Joseph Lupo , Pavana a 5.wav
Peak level 40.5 %
Extraction speed 1.7 X
Track quality 99.9 %
Test CRC A421C753
Copy CRC A421C753
Accurately ripped (confidence 4) [1CEE4095]
Copy OK
Track 22
Filename F:\rips\Fretwork - Birds on Fire (2008) FLAC\22 Thomas Lupo , Fantasia in 6 parts No 4.wav
Peak level 62.7 %
Extraction speed 1.9 X
Track quality 99.9 %
Test CRC E485BB21
Copy CRC E485BB21
Accurately ripped (confidence 4) [2F638D47]
Copy OK
Track 23
Filename F:\rips\Fretwork - Birds on Fire (2008) FLAC\23 Thomas Lupo , Fantasia in 6 parts No 11.wav
Peak level 90.5 %
Extraction speed 2.4 X
Track quality 99.9 %
Test CRC A0E9FDFB
Copy CRC A0E9FDFB
Accurately ripped (confidence 4) [CEC57B70]
Copy OK
Track 24
Filename F:\rips\Fretwork - Birds on Fire (2008) FLAC\24 Orlando Gough , Birds on Fire 3.wav
Peak level 91.6 %
Extraction speed 0.7 X
Track quality 99.3 %
Test CRC 1E7273AE
Copy CRC 1E7273AE
Accurately ripped (confidence 4) [B8E57C12]
Copy OK
Track 25
Filename F:\rips\Fretwork - Birds on Fire (2008) FLAC\25 Salamone Rossi ''Ebreo'' , Shir hamma'alot.wav
Peak level 90.7 %
Extraction speed 6.2 X
Track quality 99.9 %
Test CRC 6429F351
Copy CRC 6429F351
Accurately ripped (confidence 4) [FC056406]
Copy OK
23 track(s) accurately ripped
2 track(s) canceled
Some tracks could not be verified as accurate
There were errors
End of status report
------------------------------------------------------------
Exact Audio Copy V1.0 beta 1 from 15. November 2010
EAC extraction logfile from 14. April 2011, 15:35
Fretwork / Birds on Fire
Used drive : _NEC DVD_RW ND-3520A Adapter: 0 ID: 0
Read mode : Secure
Utilize accurate stream : Yes
Defeat audio cache : Yes
Make use of C2 pointers : No
Read offset correction : 48
Overread into Lead-In and Lead-Out : No
Fill up missing offset samples with silence : Yes
Delete leading and trailing silent blocks : No
Null samples used in CRC calculations : Yes
Used interface : Native Win32 interface for Win NT & 2000
Gap handling : Appended to previous track
Used output format : User Defined Encoder
Selected bitrate : 768 kBit/s
Quality : High
Add ID3 tag : No
Command line compressor : C:\Program Files (x86)\flac encoder 1.2.1\bin\flac.exe
Additional command line options : -V -8 -T "artist=%a" -T "title=%t" -T "album=%g" -T "date=%y" -T "tracknumber=%n" -T "genre=%m" %s
TOC of the extracted CD
Track | Start | Length | Start sector | End sector
---------------------------------------------------------
1 | 0:00.00 | 5:52.66 | 0 | 26465
2 | 5:52.66 | 3:01.16 | 26466 | 40056
3 | 8:54.07 | 1:03.51 | 40057 | 44832
4 | 9:57.58 | 1:13.23 | 44833 | 50330
5 | 11:11.06 | 1:06.70 | 50331 | 55350
6 | 12:18.01 | 1:32.37 | 55351 | 62287
7 | 13:50.38 | 1:24.59 | 62288 | 68646
8 | 15:15.22 | 0:42.50 | 68647 | 71846
9 | 15:57.72 | 1:19.23 | 71847 | 77794
10 | 17:17.20 | 2:19.60 | 77795 | 88279
11 | 19:37.05 | 1:53.67 | 88280 | 96821
12 | 21:30.72 | 4:04.70 | 96822 | 115191
13 | 25:35.67 | 7:36.10 | 115192 | 149401
14 | 33:12.02 | 3:40.44 | 149402 | 165945
15 | 36:52.46 | 2:56.27 | 165946 | 179172
16 | 39:48.73 | 2:01.22 | 179173 | 188269
17 | 41:50.20 | 3:50.07 | 188270 | 205526
18 | 45:40.27 | 2:03.33 | 205527 | 214784
19 | 47:43.60 | 1:07.03 | 214785 | 219812
20 | 48:50.63 | 3:05.02 | 219813 | 233689
21 | 51:55.65 | 2:19.49 | 233690 | 244163
22 | 54:15.39 | 3:40.61 | 244164 | 260724
23 | 57:56.25 | 3:24.58 | 260725 | 276082
24 | 61:21.08 | 10:26.70 | 276083 | 323102
25 | 71:48.03 | 3:01.73 | 323103 | 336750
Track 8
Filename F:\rips\Fretwork - Birds on Fire (2008) FLAC\08 Albert Kellim , Gallyard.wav
Peak level 32.6 %
Extraction speed 2.8 X
Track quality 100.0 %
Test CRC 64ABA88A
Copy CRC 64ABA88A
Accurately ripped (confidence 4) [41662B78]
Copy OK
Track 9
Filename F:\rips\Fretwork - Birds on Fire (2008) FLAC\09 Albert Kellim , Terza Desperada.wav
Peak level 32.8 %
Extraction speed 3.8 X
Track quality 100.0 %
Test CRC 866B36BF
Copy CRC 866B36BF
Accurately ripped (confidence 4) [9C6E5F94]
Copy OK
All tracks accurately ripped
No errors occurred
End of status report

Содержание индексной карты (.CUE)

REM DATE 2008
REM DISCID 7C118A19
REM COMMENT "ExactAudioCopy v1.0b1"
PERFORMER "Fretwork"
TITLE "Birds on fire"
FILE "01. Birds on Fire [1].wav" WAVE
TRACK 01 AUDIO
TITLE "Birds on Fire [1]"
PERFORMER "Fretwork"
INDEX 01 00:00:00
FILE "02. Hashkivénu.wav" WAVE
TRACK 02 AUDIO
TITLE "Hashkivénu"
PERFORMER "Fretwork"
INDEX 01 00:00:00
FILE "03. Desperada.wav" WAVE
TRACK 03 AUDIO
TITLE "Desperada"
PERFORMER "Fretwork"
INDEX 01 00:00:00
FILE "04. Pavana.wav" WAVE
TRACK 04 AUDIO
TITLE "Pavana"
PERFORMER "Fretwork"
INDEX 01 00:00:00
FILE "05. Gallyard.wav" WAVE
TRACK 05 AUDIO
TITLE "Gallyard"
PERFORMER "Fretwork"
INDEX 01 00:00:00
FILE "06. Seconda Desperada.wav" WAVE
TRACK 06 AUDIO
TITLE "Seconda Desperada"
PERFORMER "Fretwork"
INDEX 01 00:00:00
FILE "07. Pavin.wav" WAVE
TRACK 07 AUDIO
TITLE "Pavin"
PERFORMER "Fretwork"
INDEX 01 00:00:00
FILE "08. Gallyard.wav" WAVE
TRACK 08 AUDIO
TITLE "Gallyard"
PERFORMER "Fretwork"
INDEX 01 00:00:00
FILE "09. Terza Desperada.wav" WAVE
TRACK 09 AUDIO
TITLE "Terza Desperada"
PERFORMER "Fretwork"
INDEX 01 00:00:00
FILE "10. Sinfonia in 5 parts No. 5.wav" WAVE
TRACK 10 AUDIO
TITLE "Sinfonia in 5 parts No. 5"
PERFORMER "Fretwork"
INDEX 01 00:00:00
FILE "11. Sinfonia in 5 parts No. 6.wav" WAVE
TRACK 11 AUDIO
TITLE "Sinfonia in 5 parts No. 6"
PERFORMER "Fretwork"
INDEX 01 00:00:00
FILE "12. Fantasia in 6 parts No. 1.wav" WAVE
TRACK 12 AUDIO
TITLE "Fantasia in 6 parts No. 1"
PERFORMER "Fretwork"
INDEX 01 00:00:00
FILE "13. Birds on Fire [2].wav" WAVE
TRACK 13 AUDIO
TITLE "Birds on Fire [2]"
PERFORMER "Fretwork"
INDEX 01 00:00:00
FILE "14. Fantasia con pause e senza pause.wav" WAVE
TRACK 14 AUDIO
TITLE "Fantasia con pause e senza pause"
PERFORMER "Fretwork"
INDEX 01 00:00:00
FILE "15. Pavan in 3 parts No. 26.wav" WAVE
TRACK 15 AUDIO
TITLE "Pavan in 3 parts No. 26"
PERFORMER "Fretwork"
INDEX 01 00:00:00
FILE "16. Fantasia [Air] in 4 parts No. 5.wav" WAVE
TRACK 16 AUDIO
TITLE "Fantasia [Air] in 4 parts No. 5"
PERFORMER "Fretwork"
INDEX 01 00:00:00
FILE "17. Fahntasia in 6 parts No. 9.wav" WAVE
TRACK 17 AUDIO
TITLE "Fahntasia in 6 parts No. 9"
PERFORMER "Fretwork"
INDEX 01 00:00:00
FILE "18. Pavan No. 1.wav" WAVE
TRACK 18 AUDIO
TITLE "Pavan No. 1"
PERFORMER "Fretwork"
INDEX 01 00:00:00
FILE "19. Galliard No. 1.wav" WAVE
TRACK 19 AUDIO
TITLE "Galliard No. 1"
PERFORMER "Fretwork"
INDEX 01 00:00:00
FILE "20. Fantasia No. 1.wav" WAVE
TRACK 20 AUDIO
TITLE "Fantasia No. 1"
PERFORMER "Fretwork"
INDEX 01 00:00:00
FILE "21. Pavana a 5.wav" WAVE
TRACK 21 AUDIO
TITLE "Pavana a 5"
PERFORMER "Fretwork"
INDEX 01 00:00:00
FILE "22. Fantasia in 6 parts No. 4.wav" WAVE
TRACK 22 AUDIO
TITLE "Fantasia in 6 parts No. 4"
PERFORMER "Fretwork"
INDEX 01 00:00:00
FILE "23. Fantasia in 6 parts No. 11.wav" WAVE
TRACK 23 AUDIO
TITLE "Fantasia in 6 parts No. 11"
PERFORMER "Fretwork"
INDEX 01 00:00:00
FILE "24. Birds on Fire [3].wav" WAVE
TRACK 24 AUDIO
TITLE "Birds on Fire [3]"
PERFORMER "Fretwork"
INDEX 01 00:00:00
FILE "25. Shir Hamma‘alót.wav" WAVE
TRACK 25 AUDIO
TITLE "Shir Hamma‘alót"
PERFORMER "Fretwork"
INDEX 01 00:00:00



Показать сообщения:    

Текущее время: 04-Дек 23:20

Часовой пояс: UTC + 3


Вы не можете начинать темы
Вы не можете отвечать на сообщения
Вы не можете редактировать свои сообщения
Вы не можете удалять свои сообщения
Вы не можете голосовать в опросах
Вы не можете прикреплять файлы к сообщениям
Вы не можете скачивать файлы