(Classical) Dufay · Missa Puisque je vis, Ave regina caelorum | Compère/Compere · Omnium bonorum plena (The Binchois Consort, Andrew Kirkman) · 2013, FLAC (tracks+.cue) lossless


Статистика раздачи [Обновить пиров]
Размер:  293 MB   |    Зарегистрирован:  8 месяцев 15 дней   |    Скачан:  0 раз

Полного источника не было: Никогда

 
   
 
 
 

[Цитировать]

Dufay
Missa Puisque je vis
Compère
Omnium bonorum plena
Жанр: classical
Страна-производитель диска: UK
Год издания диска: 2013
Издатель: hyperion
Номер по каталогу: CDH55423
Дата записи: июль 2002
Аудиокодек: FLAC
Тип рипа: tracks+.cue
Битрейт аудио: lossless
Продолжительность: 01:08:15
Источник: скачано с what.cd
Буклет в содержимом раздачи есть
Исполнители:
The Binchois Consort
Andrew Kirkman (conductor)

Треклист

Guillaume Dufay
Missa Puisque je vis
01. Kyrie (5:14)
02. Gloria (6:29)
03. Credo (8:34)
04. Sanctus (5:27)
05. Benedictus (3:00)
06. Agnus Dei (5:54)
Loyset Compère
07. Omnium bonorum plena (10:32)
Anonymous
08. Concede nobis, Domine (7:18)
09. Salve maris stella (7:57)
Guillaume Dufay
10. Ave regina caelorum (7:50)

Лог создания рипа

Exact Audio Copy V1.0 beta 3 from 29. August 2011
EAC extraction logfile from 16. November 2013, 17:56
The Binchois Consort / Guillaume Dufay - Missa Puisque je vis & other works
Used drive : SlimtypeDVD A DS8A8SH Adapter: 1 ID: 0
Read mode : Secure
Utilize accurate stream : Yes
Defeat audio cache : Yes
Make use of C2 pointers : No
Read offset correction : 6
Overread into Lead-In and Lead-Out : No
Fill up missing offset samples with silence : Yes
Delete leading and trailing silent blocks : No
Null samples used in CRC calculations : Yes
Used interface : Native Win32 interface for Win NT & 2000
Gap handling : Appended to previous track
Used output format : User Defined Encoder
Selected bitrate : 512 kBit/s
Quality : High
Add ID3 tag : No
Command line compressor : C:\Program Files (x86)\Exact Audio Copy\Flac\flac.exe
Additional command line options : -8 -V -T "ARTIST=%artist%" -T "TITLE=%title%" -T "ALBUM=%albumtitle%" -T "DATE=%year%" -T "TRACKNUMBER=%tracknr%" -T "TOTALTRACKS=%numtracks%" -T "GENRE=%genre%" -T "ALBUMARTIST=%albumartist%" -T "ALBUM ARTIST=%albumartist%" -T "COMMENT=EAC Secure Mode, Test & Copy, AccurateRip, FLAC -8" %source%
TOC of the extracted CD
Track | Start | Length | Start sector | End sector
---------------------------------------------------------
1 | 0:00.00 | 5:13.73 | 0 | 23547
2 | 5:13.73 | 6:28.63 | 23548 | 52710
3 | 11:42.61 | 8:34.06 | 52711 | 91266
4 | 20:16.67 | 5:27.10 | 91267 | 115801
5 | 25:44.02 | 3:00.34 | 115802 | 129335
6 | 28:44.36 | 5:53.53 | 129336 | 155863
7 | 34:38.14 | 10:31.61 | 155864 | 203249
8 | 45:10.00 | 7:18.20 | 203250 | 236119
9 | 52:28.20 | 7:56.48 | 236120 | 271867
10 | 60:24.68 | 7:50.22 | 271868 | 307139
Track 1
Filename I:\MY RIPS\Guillaume Dufay - Missa Puisque je vis (2013) [FLAC] {Hyperion CDH55423}\01 - Dufay - Missa Puisque Je Vis - 1. Kyrie.wav
Pre-gap length 0:00:02.00
Peak level 71.0 %
Extraction speed 1.1 X
Track quality 100.0 %
Test CRC F126C557
Copy CRC F126C557
Cannot be verified as accurate (confidence 4) [2D330519], AccurateRip returned [EA89791E] (AR v2)
Copy OK
Track 2
Filename I:\MY RIPS\Guillaume Dufay - Missa Puisque je vis (2013) [FLAC] {Hyperion CDH55423}\02 - Dufay - Missa Puisque Je Vis - 2. Gloria.wav
Pre-gap length 0:00:02.22
Peak level 76.8 %
Extraction speed 1.3 X
Track quality 100.0 %
Test CRC 49203809
Copy CRC 49203809
Cannot be verified as accurate (confidence 4) [B0E947AB], AccurateRip returned [011CBFDE] (AR v2)
Copy OK
Track 3
Filename I:\MY RIPS\Guillaume Dufay - Missa Puisque je vis (2013) [FLAC] {Hyperion CDH55423}\03 - Dufay - Missa Puisque Je Vis - 3. Credo.wav
Pre-gap length 0:00:06.10
Peak level 77.3 %
Extraction speed 1.6 X
Track quality 100.0 %
Test CRC 6CF40B1F
Copy CRC 6CF40B1F
Cannot be verified as accurate (confidence 4) [B90BE7B8], AccurateRip returned [060D9F5D] (AR v2)
Copy OK
Track 4
Filename I:\MY RIPS\Guillaume Dufay - Missa Puisque je vis (2013) [FLAC] {Hyperion CDH55423}\04 - Dufay - Missa Puisque Je Vis - 4. Sanctus.wav
Pre-gap length 0:00:05.43
Peak level 75.1 %
Extraction speed 1.7 X
Track quality 100.0 %
Test CRC F17A5CDB
Copy CRC F17A5CDB
Cannot be verified as accurate (confidence 4) [B6470874], AccurateRip returned [2A1CD517] (AR v2)
Copy OK
Track 5
Filename I:\MY RIPS\Guillaume Dufay - Missa Puisque je vis (2013) [FLAC] {Hyperion CDH55423}\05 - Dufay - Missa Puisque Je Vis - 5. Benedictus.wav
Pre-gap length 0:00:00.43
Peak level 63.2 %
Extraction speed 1.6 X
Track quality 100.0 %
Test CRC EE3D69D3
Copy CRC EE3D69D3
Cannot be verified as accurate (confidence 4) [33AF89B8], AccurateRip returned [A70131E5] (AR v2)
Copy OK
Track 6
Filename I:\MY RIPS\Guillaume Dufay - Missa Puisque je vis (2013) [FLAC] {Hyperion CDH55423}\06 - Dufay - Missa Puisque Je Vis - 6. Agnus Dei.wav
Pre-gap length 0:00:03.47
Peak level 61.0 %
Extraction speed 1.9 X
Track quality 100.0 %
Test CRC 6C2D1CB3
Copy CRC 6C2D1CB3
Cannot be verified as accurate (confidence 4) [4E5D8449], AccurateRip returned [FB32FA77] (AR v2)
Copy OK
Track 7
Filename I:\MY RIPS\Guillaume Dufay - Missa Puisque je vis (2013) [FLAC] {Hyperion CDH55423}\07 - Compere - Omnium Bonorum Plena.wav
Pre-gap length 0:00:08.22
Peak level 71.5 %
Extraction speed 2.1 X
Track quality 100.0 %
Test CRC CAA6706D
Copy CRC CAA6706D
Cannot be verified as accurate (confidence 4) [3C70E820], AccurateRip returned [45C86802] (AR v2)
Copy OK
Track 8
Filename I:\MY RIPS\Guillaume Dufay - Missa Puisque je vis (2013) [FLAC] {Hyperion CDH55423}\08 - Anon - Concede Nobis, Domine.wav
Pre-gap length 0:00:06.31
Peak level 63.8 %
Extraction speed 2.2 X
Track quality 100.0 %
Test CRC 1379BE80
Copy CRC 1379BE80
Cannot be verified as accurate (confidence 4) [EBD33280], AccurateRip returned [E987CB30] (AR v2)
Copy OK
Track 9
Filename I:\MY RIPS\Guillaume Dufay - Missa Puisque je vis (2013) [FLAC] {Hyperion CDH55423}\09 - Anon - Salve Maris Stella.wav
Pre-gap length 0:00:07.04
Peak level 100.0 %
Extraction speed 2.4 X
Track quality 100.0 %
Test CRC 18E0922F
Copy CRC 18E0922F
Cannot be verified as accurate (confidence 4) [C6BADDAF], AccurateRip returned [36659AE6] (AR v2)
Copy OK
Track 10
Filename I:\MY RIPS\Guillaume Dufay - Missa Puisque je vis (2013) [FLAC] {Hyperion CDH55423}\10 - Dufay - Ave Regina Caelorum.wav
Pre-gap length 0:00:06.03
Peak level 82.1 %
Extraction speed 2.5 X
Track quality 100.0 %
Test CRC 9F3D5F43
Copy CRC 9F3D5F43
Cannot be verified as accurate (confidence 4) [E60B9CD6], AccurateRip returned [35BAF9C5] (AR v2)
Copy OK
No tracks could be verified as accurate
You may have a different pressing from the one(s) in the database
No errors occurred
End of status report
==== Log checksum 4B40960CD41BC7C974AEF161A2A0D0B4DD5CE5D617B08937A3BA5AF70BA2782D ====

Содержание индексной карты (.CUE)

REM DATE 2013
REM DISCID 720FFF0A
REM COMMENT "ExactAudioCopy v1.0b3"
PERFORMER "The Binchois Consort"
TITLE "Dufay Missa Puisque je vis · Compère Omnium bonorum plena"
FILE "01. Missa Puisque je vis. Kyrie.wav" WAVE
TRACK 01 AUDIO
TITLE "Missa Puisque je vis: Kyrie"
PERFORMER "The Binchois Consort"
INDEX 01 00:00:00
TRACK 02 AUDIO
TITLE "Missa Puisque je vis: Gloria"
PERFORMER "The Binchois Consort"
INDEX 00 05:11:51
FILE "02. Missa Puisque je vis. Gloria.wav" WAVE
INDEX 01 00:00:00
TRACK 03 AUDIO
TITLE "Missa Puisque je vis: Credo"
PERFORMER "The Binchois Consort"
INDEX 00 06:22:53
FILE "03. Missa Puisque je vis. Credo.wav" WAVE
INDEX 01 00:00:00
TRACK 04 AUDIO
TITLE "Missa Puisque je vis: Sanctus"
PERFORMER "The Binchois Consort"
INDEX 00 08:28:38
FILE "04. Missa Puisque je vis. Sanctus.wav" WAVE
INDEX 01 00:00:00
TRACK 05 AUDIO
TITLE "Missa Puisque je vis: Benedictus"
PERFORMER "The Binchois Consort"
INDEX 00 05:26:42
FILE "05. Missa Puisque je vis. Benedictus.wav" WAVE
INDEX 01 00:00:00
TRACK 06 AUDIO
TITLE "Missa Puisque je vis: Agnus Dei"
PERFORMER "The Binchois Consort"
INDEX 00 02:56:62
FILE "06. Missa Puisque je vis. Agnus Dei.wav" WAVE
INDEX 01 00:00:00
TRACK 07 AUDIO
TITLE "Omnium bonorum plena"
PERFORMER "The Binchois Consort"
INDEX 00 05:45:31
FILE "07. Omnium bonorum plena.wav" WAVE
INDEX 01 00:00:00
TRACK 08 AUDIO
TITLE "Concede nobis, Domine"
PERFORMER "The Binchois Consort"
INDEX 00 10:25:30
FILE "08. Concede nobis, Domine.wav" WAVE
INDEX 01 00:00:00
TRACK 09 AUDIO
TITLE "Salve maris stella"
PERFORMER "The Binchois Consort"
INDEX 00 07:11:16
FILE "09. Salve maris stella.wav" WAVE
INDEX 01 00:00:00
TRACK 10 AUDIO
TITLE "Ave regina caelorum"
PERFORMER "The Binchois Consort"
INDEX 00 07:50:45
FILE "10. Ave regina caelorum.wav" WAVE
INDEX 01 00:00:00
[teatrix.ru].t21700.torrent 
Торрент: Зарегистрирован [ 2016-03-20 12:55 ] · EAFDEC2FD0A20577810DE1E87B55A22F9FAF33EB

Скачать .torrent

Скачать

13 KB

Статус: проверено
Скачан: 0 раз
Размер: 293 MB
terms.php



Быстрый ответ

Имя:

      
Для отправки сообщений необходимо включить JavaScript
Показать сообщения:    

Текущее время: 05-Дек 01:26

Часовой пояс: UTC + 3


Вы можете начинать темы
Вы можете отвечать на сообщения
Вы не можете редактировать свои сообщения
Вы не можете удалять свои сообщения
Вы не можете голосовать в опросах
Вы не можете прикреплять файлы к сообщениям
Вы можете скачивать файлы