(Classical) Henri Dumont, Henri Fremart - Mass from the Court of the Sun King - Ensemble Dumont, Peter Bennett - 2001, FLAC (image+.cue) lossless


Статистика раздачи [Обновить пиров]
Размер:  268 MB   |    Зарегистрирован:  8 месяцев 16 дней   |    Скачан:  1 раз

Полного источника не было: 4 дня

 
   
 
 
 

[Цитировать]

Henri Dumont, Henri Frémart - Mass from the Court of the Sun King - Ensemble Dumont, Peter Bennett
Жанр: Classical
Страна-производитель диска: UK
Год издания диска: 2001
Издатель (лейбл): Linn Records
Номер по каталогу: CKD 154
Дата записи: 2000
Аудиокодек: FLAC
Тип рипа: image+.cue
Битрейт аудио: lossless
Продолжительность: 58:00
Источник: собственный рип
Наличие сканов в содержимом раздачи: да
Треклист:
Henri Dumont (1610-1684)
[1]-[5] Mass
Henri Frémart (c.1590-1650)
[6]-[16] Mass Jubilate Deo
Исполнители:
Ensemble Dumont
Peter Bennett

Лог создания рипа

Exact Audio Copy V1.0 beta 3 from 29. August 2011
EAC extraction logfile from 6. February 2015, 0:49
Ensemble Dumont, Peter Bennett / La Messe du Roi
Used drive : HL-DT-STDVDRAM GU70N Adapter: 0 ID: 0
Read mode : Secure
Utilize accurate stream : Yes
Defeat audio cache : Yes
Make use of C2 pointers : No
Read offset correction : 48
Overread into Lead-In and Lead-Out : No
Fill up missing offset samples with silence : Yes
Delete leading and trailing silent blocks : No
Null samples used in CRC calculations : Yes
Used interface : Native Win32 interface for Win NT & 2000
Used output format : User Defined Encoder
Selected bitrate : 128 kBit/s
Quality : High
Add ID3 tag : No
Command line compressor : C:\Program Files (x86)\Exact Audio Copy\Flac\flac.exe
Additional command line options : -V -8 -T "Date=%year%" -T "Genre=%genre%" %source%
TOC of the extracted CD
Track | Start | Length | Start sector | End sector
---------------------------------------------------------
1 | 0:00.00 | 5:11.72 | 0 | 23396
2 | 5:11.72 | 9:34.50 | 23397 | 66496
3 | 14:46.47 | 7:27.50 | 66497 | 100071
4 | 22:14.22 | 2:42.35 | 100072 | 112256
5 | 24:56.57 | 2:45.53 | 112257 | 124684
6 | 27:42.35 | 0:31.32 | 124685 | 127041
7 | 28:13.67 | 2:42.08 | 127042 | 139199
8 | 30:56.00 | 3:33.20 | 139200 | 155194
9 | 34:29.20 | 1:01.47 | 155195 | 159816
10 | 35:30.67 | 8:10.53 | 159817 | 196619
11 | 43:41.45 | 1:54.35 | 196620 | 205204
12 | 45:36.05 | 2:15.29 | 205205 | 215358
13 | 47:51.34 | 2:06.26 | 215359 | 224834
14 | 49:57.60 | 2:44.22 | 224835 | 237156
15 | 52:42.07 | 0:47.03 | 237157 | 240684
16 | 53:29.10 | 4:29.35 | 240685 | 260894
Range status and errors
Selected range
Filename C:\temp\La Messe du Roi - Ensemble Dumont\La Messe du Roi.wav
Peak level 82.2 %
Extraction speed 5.1 X
Range quality 100.0 %
Test CRC 1A26F818
Copy CRC 1A26F818
Copy OK
No errors occurred
AccurateRip summary
Track 1 accurately ripped (confidence 2) [E63C4363] (AR v1)
Track 2 accurately ripped (confidence 2) [826DA619] (AR v1)
Track 3 accurately ripped (confidence 2) [C617EC0A] (AR v1)
Track 4 accurately ripped (confidence 2) [0EA45604] (AR v1)
Track 5 accurately ripped (confidence 2) [B48348AE] (AR v1)
Track 6 accurately ripped (confidence 2) [359174E1] (AR v1)
Track 7 accurately ripped (confidence 2) [2D5A94EA] (AR v1)
Track 8 accurately ripped (confidence 2) [AA9EAAA1] (AR v1)
Track 9 accurately ripped (confidence 2) [315F64C8] (AR v1)
Track 10 accurately ripped (confidence 2) [E05E1317] (AR v1)
Track 11 accurately ripped (confidence 2) [8313F855] (AR v1)
Track 12 accurately ripped (confidence 2) [94126664] (AR v1)
Track 13 accurately ripped (confidence 2) [98048F57] (AR v1)
Track 14 accurately ripped (confidence 2) [79B802B0] (AR v1)
Track 15 accurately ripped (confidence 2) [02AB591C] (AR v1)
Track 16 accurately ripped (confidence 2) [268BD381] (AR v1)
All tracks accurately ripped
End of status report
==== Log checksum 0A08056E7D27A0F51D35A96E03853385E11EEB4E7FA0897408428D77A11BAC6C ====
[teatrix.ru].t21702.torrent 
Торрент: Зарегистрирован [ 2016-03-20 12:55 ] · DA74A7E97CF379C428FFEBB9F7501A5331E6E8CC

Скачать .torrent

Скачать

23 KB

Статус: проверено
Скачан: 1 раз
Размер: 268 MB
terms.php



Быстрый ответ

Имя:

      
Для отправки сообщений необходимо включить JavaScript
Показать сообщения:    

Текущее время: 05-Дек 13:31

Часовой пояс: UTC + 3


Вы можете начинать темы
Вы можете отвечать на сообщения
Вы не можете редактировать свои сообщения
Вы не можете удалять свои сообщения
Вы не можете голосовать в опросах
Вы не можете прикреплять файлы к сообщениям
Вы можете скачивать файлы