(Classical) Свиридов, трио ля минор, Шостакович, трио №2 ми минор (Дар-трио) - 2005, FLAC (image+.cue) lossless


 

[Цитировать]

Свиридов, трио ля минор, Шостакович, трио №2 ми минор (Дар-трио)
Жанр: Classical
Страна-производитель диска: Россия
Год издания диска: 2005
Издатель (лейбл): Classical Records
Номер по каталогу: CR-064
Аудиокодек: FLAC
Тип рипа: image+.cue
Битрейт аудио: lossless
Продолжительность: 61:06
Источник: собственный рип
Наличие сканов в содержимом раздачи: да
Треклист:
1. Свиридов. Трио ля минор: Элегия
2. Скерцо
3. Похоронный марш
4. Идиллия
5. Шостакович. Трио №2 ми минор: Andante-Moderato-Poco piu mosso
6. Allegro non troppo
7. Largo
8. Allegretto
Исполнители:
Дар-Трио:
Дмитрий Климов (фортепьяно)
Александр Калашков (скрипка)
Рустам Комачков (виолончель)

Лог создания рипа

Exact Audio Copy V1.0 beta 6 from 9. April 2015
Отчёт EAC об извлечении, выполненном 29. июля 2015, 20:19
Dar-Trio / Georgi Sviridov - Dmitri Shostakovich - Piano Trios
Дисковод: TSSTcorpDVD+-RW TS-H653G Adapter: 0 ID: 0
Режим чтения : Достоверность
Использование точного потока : Да
Отключение кэша аудио : Да
Использование указателей C2 : Нет
Коррекция смещения при чтении : 6
Способность читать области Lead-in и Lead-out : Нет
Заполнение пропущенных сэмплов тишиной : Да
Удаление блоков с тишиной в начале и конце : Нет
При вычислениях CRC использовались нулевые сэмплы : Да
Интерфейс : Установленный внешний ASPI-интерфейс
Выходной формат : Пользовательский кодировщик
Выбранный битрейт : 128 kBit/s
Качество : Высокий
Добавление ID3-тега : Нет
Утилита сжатия : C:\Program Files (x86)\Exact Audio Copy\flac-1.3.1-win\win64\flac.exe
Дополнительные параметры : -V -8 -T "Date=%year%" -T "Genre=%genre%" %source%
TOC извлечённого CD
Трек | Старт | Длительность | Начальный сектор | Конечный сектор
---------------------------------------------------------------------
1 | 0:00.00 | 8:26.18 | 0 | 37967
2 | 8:26.18 | 6:11.48 | 37968 | 65840
3 | 14:37.66 | 9:37.65 | 65841 | 109180
4 | 24:15.56 | 7:23.49 | 109181 | 142454
5 | 31:39.30 | 8:06.18 | 142455 | 178922
6 | 39:45.48 | 3:11.21 | 178923 | 193268
7 | 42:56.69 | 5:42.08 | 193269 | 218926
8 | 48:39.02 | 12:27.15 | 218927 | 274966
Характеристики диапазона извлечения и сообщения об ошибках
Выбранный диапазон
Имя файла D:\Dar-trio\Dar-Trio - Georgi Sviridov - Dmitri Shostakovich - Piano Trios.wav
Пиковый уровень 99.8 %
Скорость извлечения 8.0 X
Качество диапазона 100.0 %
CRC теста 00E5F44B
CRC копии 00E5F44B
Копирование... OK
Ошибок не произошло
AccurateRip: сводка
Трек 1 : извлечено точно (доверие 1) [46610FFD] (AR v2)
Трек 2 : извлечено точно (доверие 1) [DCBB3ABF] (AR v2)
Трек 3 : извлечено точно (доверие 1) [75A2E7B8] (AR v2)
Трек 4 : извлечено точно (доверие 1) [06865A81] (AR v2)
Трек 5 : извлечено точно (доверие 1) [B49FC8C5] (AR v2)
Трек 6 : извлечено точно (доверие 1) [289C108F] (AR v2)
Трек 7 : извлечено точно (доверие 1) [4F91F8DE] (AR v2)
Трек 8 : извлечено точно (доверие 1) [804133CC] (AR v2)
Все треки извлечены точно
Конец отчёта
==== Контрольная сумма отчёта CF738714B75C9787F75B0152CA84E57BA8D8D3B520C3BA45CF05F05C20F2368E ====

Содержание индексной карты (.CUE)

REM GENRE Classical
REM DATE 2005
REM DISCID 7B0E5208
REM COMMENT "ExactAudioCopy v1.0b6"
PERFORMER "Dar-Trio"
TITLE "Georgi Sviridov - Dmitri Shostakovich - Piano Trios"
FILE "Dar-Trio - Georgi Sviridov - Dmitri Shostakovich - Piano Trios.flac" WAVE
TRACK 01 AUDIO
TITLE "Piano Trio in A minor - I. Elegy"
PERFORMER "Georgi Sviridov"
INDEX 01 00:00:00
TRACK 02 AUDIO
TITLE "Piano Trio in A minor - II. Scherzo"
PERFORMER "Georgi Sviridov"
INDEX 00 08:22:18
INDEX 01 08:26:18
TRACK 03 AUDIO
TITLE "Piano Trio in A minor - III. Funeral march"
PERFORMER "Georgi Sviridov"
INDEX 00 14:30:66
INDEX 01 14:37:66
TRACK 04 AUDIO
TITLE "Piano Trio in A minor - IV. Idyll"
PERFORMER "Georgi Sviridov"
INDEX 01 24:15:56
TRACK 05 AUDIO
TITLE "Piano Trio No.2 in E minor op.67 - I. Andante - Moderato - Poco piщ mosso"
PERFORMER "Dmitri Shostakovich"
INDEX 00 31:30:30
INDEX 01 31:39:30
TRACK 06 AUDIO
TITLE "Piano Trio No.2 in E minor op.67 - II. Allegro non troppo"
PERFORMER "Dmitri Shostakovich"
INDEX 00 39:39:48
INDEX 01 39:45:48
TRACK 07 AUDIO
TITLE "Piano Trio No.2 in E minor op.67 - III. Largo"
PERFORMER "Dmitri Shostakovich"
INDEX 00 42:51:69
INDEX 01 42:56:69
TRACK 08 AUDIO
TITLE "Piano Trio No.2 in E minor op.67 - IV. Allegretto"
PERFORMER "Dmitri Shostakovich"
INDEX 01 48:39:02



Показать сообщения:    

Текущее время: 05-Дек 17:34

Часовой пояс: UTC + 3


Вы не можете начинать темы
Вы не можете отвечать на сообщения
Вы не можете редактировать свои сообщения
Вы не можете удалять свои сообщения
Вы не можете голосовать в опросах
Вы не можете прикреплять файлы к сообщениям
Вы не можете скачивать файлы