(Classical) George Enescu - Symphonie Concertante; Symphony No.1 - Truls Mørk (Mork), Tampere Philharmonic Orchestra, Hannu Lintu - 2015, FLAC (image+.cue) lossless


 

[Цитировать]

George Enescu - Symphonie Concertante; Symphony No.1 - Truls Mørk, Tampere Philharmonic Orchestra, Hannu Lintu
Жанр: Classical
Страна-производитель диска: Finland
Год издания диска: 2015
Издатель (лейбл): Ondine
Номер по каталогу: ODE 1198-2
Дата записи: 2013, 2014
Аудиокодек: FLAC
Тип рипа: image+.cue
Битрейт аудио: lossless
Продолжительность: 54:04
Источник: собственный рип
Наличие сканов в содержимом раздачи: да
Треклист:
George Enescu (1881–1955)
[1]-[3] Symphonie Concertante for Cello and Orchestra in B flat minor, Op. 8
[4]-[6] Symphony No. 1 in E flat major, Op. 13
Исполнители:
Truls Mørk cello
Tampere Philharmonic Orchestra
Hannu Lintu
conductor

Лог создания рипа

Exact Audio Copy V1.0 beta 3 from 29. August 2011
EAC extraction logfile from 4. July 2015, 19:42
Tampere PO, Hannu Lintu / Enescu - Symphonie Concertante; Symphony No.1
Used drive : HL-DT-STDVDRAM GU70N Adapter: 0 ID: 0
Read mode : Secure
Utilize accurate stream : Yes
Defeat audio cache : Yes
Make use of C2 pointers : No
Read offset correction : 48
Overread into Lead-In and Lead-Out : No
Fill up missing offset samples with silence : Yes
Delete leading and trailing silent blocks : No
Null samples used in CRC calculations : Yes
Used interface : Native Win32 interface for Win NT & 2000
Used output format : User Defined Encoder
Selected bitrate : 128 kBit/s
Quality : High
Add ID3 tag : No
Command line compressor : C:\Program Files (x86)\Exact Audio Copy\Flac\flac.exe
Additional command line options : -V -8 -T "Date=%year%" -T "Genre=%genre%" %source%
TOC of the extracted CD
Track | Start | Length | Start sector | End sector
---------------------------------------------------------
1 | 0:00.00 | 10:35.42 | 0 | 47666
2 | 10:35.42 | 4:49.45 | 47667 | 69386
3 | 15:25.12 | 8:38.42 | 69387 | 108278
4 | 24:03.54 | 10:58.34 | 108279 | 157662
5 | 35:02.13 | 10:50.07 | 157663 | 206419
6 | 45:52.20 | 8:08.11 | 206420 | 243030
Range status and errors
Selected range
Filename C:\temp\Enescu - Symphonie Concertante; Symphony No.1\Enescu - Symphonie Concertante; Symphony No.1.wav
Peak level 98.0 %
Extraction speed 5.1 X
Range quality 100.0 %
Test CRC DE51B42A
Copy CRC DE51B42A
Copy OK
No errors occurred
AccurateRip summary
Track 1 not present in database
Track 2 not present in database
Track 3 not present in database
Track 4 not present in database
Track 5 not present in database
Track 6 not present in database
None of the tracks are present in the AccurateRip database
End of status report
==== Log checksum 48F165B788ADFA56475F91C30BD98EE65A2737A84FB8CCD28E363B412091CC2C ====



Показать сообщения:    

Текущее время: 10-Дек 02:15

Часовой пояс: UTC + 3


Вы не можете начинать темы
Вы не можете отвечать на сообщения
Вы не можете редактировать свои сообщения
Вы не можете удалять свои сообщения
Вы не можете голосовать в опросах
Вы не можете прикреплять файлы к сообщениям
Вы не можете скачивать файлы