[TR24][OF] Franz (Ferenc) Liszt: Piano Concertos - Alexandre Kantorow, Tapiola Sinfonietta, Jean-Jacques Kantorow - 2015 (Classical)


Статистика раздачи [Обновить пиров]
Размер:  955 MB   |    Зарегистрирован:  8 месяцев 18 дней   |    Скачан:  0 раз

Полного источника не было: Никогда

 
   
 
 
 

[Цитировать]

Franz Liszt
Piano Concertos
Alexandre Kantorow
Tapiola Sinfonietta · Jean-Jacques Kantorow
-Год издания: 2015 | Жанр: Classical
Издатель: BIS Records | Продолжительность: 00:58:02
Наличие сканов: Sleeve, Digital Booklet- -Контейнер: FLAC (*.flac) | Тип рипа: tracks
Разрядность: 24bit / 96kHz | Количество каналов: 2.0
-Треклист
Franz Liszt (1811-1886)
Piano Concerto No.1 in E flat major, S.124 (1832–56)
01.I. Allegro maestoso. Tempo giusto (5:52)
02. II. Quasi adagio (5:09)
03. III. Allegretto vivace – Allegro animato (4:06)
04. IV. Allegro marziale animato (4:10)
Concerto in E minor ‘Malédiction’, S.121 (1833–40)
for piano and strings
05. Quasi moderato – Sostenuto… (7:58)
06. Bar 163: energico nobilmente – Sempre moderato… (7:59)
Piano Concerto No.2 in A major, S.125 (1839/1849–61)
07. Adagio sostenuto assai – Allegro agitato assai (7:24)
08. Tempo del andante – Allegro moderato (6:25)
09. Allegro deciso (2:53)
10. Marziale, un poco meno allegro (1:08)
11. Un poco meno mosso (2:58)
12. Allegro animato (1:59)

О релизе


As a teenager, Franz Liszt created at least two virtuosic concertos for piano and orchestra, scores which now are lost. The three works gathered here first saw the light of day only a few years later, however, during the 1830's when Liszt’s career as a young, travelling virtuoso was at its height. The two numbered concertos, which Liszt revised extensively before letting them be published some 25 years after their conception, frame the single-movement Malédiction for piano and strings which Liszt composed in 1833 and revised in 1840, but which was never published in his lifetime. Stepping into Liszt's shoes for the present recording is Alexandre Kantorow, another very young man. Born in 1997, Alexandre is here supported by his father Jean-Jacques Kantorow conducting the Tapiola Sinfonietta, a team with a number of highly acclaimed recordings to their credit. The recording is Alexandre’s first for BIS, as well as being his début concerto disc, and represents a remarkable achievement by a hugely promising talent, as well as being a vibrant and exciting account of three impassioned scores.
Personnel:
Alexandre Kantorow, piano
Tapiola Sinfonietta
Jean-Jacques Kantorow, conductor
Recorded: November 2014 at the Tapiola Concert Hall, Finland

ОтчётыДинамический диапазон

foobar2000 1.3.8 / Dynamic Range Meter 1.1.1
log date: 2015-07-10 19:41:32
--------------------------------------------------------------------------------
Analyzed: Alexandre Kantorow, Tapiola Sinfonietta, Jean-Jacques Kantorow / Liszt: Piano Concertos
--------------------------------------------------------------------------------
DR Peak RMS Duration Track
--------------------------------------------------------------------------------
DR14 -0.20 dB -20.83 dB 5:52 01-Piano Concerto No.1 in E flat major, S.124 (1832–56) - I. Allegro maestoso. Tempo giusto
DR14 -5.52 dB -26.67 dB 5:09 02-Piano Concerto No.1 in E flat major, S.124 (1832–56) - II. Quasi adagio
DR13 -0.93 dB -20.19 dB 4:06 03-Piano Concerto No.1 in E flat major, S.124 (1832–56) - III. Allegretto vivace – Allegro animato
DR14 -0.20 dB -19.07 dB 4:10 04-Piano Concerto No.1 in E flat major, S.124 (1832–56) - IV. Allegro marziale animato
DR13 -2.04 dB -21.23 dB 7:58 05-Concerto in E minor ‘Malédiction’, S.121 (1833–40) - Quasi moderato – Sostenuto…
DR14 -0.44 dB -19.08 dB 7:59 06-Concerto in E minor ‘Malédiction’, S.121 (1833–40) - Bar 163: energico nobilmente – Sempre moderato…
DR14 -0.39 dB -20.24 dB 7:24 07-Piano Concerto No.2 in A major, S.125 (1839/1849–61) - Adagio sostenuto assai – Allegro agitato assai
DR15 -7.62 dB -29.12 dB 6:25 08-Piano Concerto No.2 in A major, S.125 (1839/1849–61) - Tempo del andante – Allegro moderato
DR12 -0.43 dB -17.20 dB 2:53 09-Piano Concerto No.2 in A major, S.125 (1839/1849–61) - Allegro deciso
DR12 -0.20 dB -16.22 dB 1:08 10-Piano Concerto No.2 in A major, S.125 (1839/1849–61) - Marziale, un poco meno allegro
DR12 -7.11 dB -27.05 dB 2:58 11-Piano Concerto No.2 in A major, S.125 (1839/1849–61) - Un poco meno mosso
DR12 -0.20 dB -16.07 dB 1:59 12-Piano Concerto No.2 in A major, S.125 (1839/1849–61) - Allegro animato
--------------------------------------------------------------------------------
Number of tracks: 12
Official DR value: DR13
Samplerate: 96000 Hz
Channels: 2
Bits per sample: 24
Bitrate: 2348 kbps
Codec: FLAC
================================================================================

Скриншот спектра частот

Доп. информация

При скачивании, если необходимо, переименуйте папку, в которой будет находиться альбомБольшая просьба к скачавшим поддерживать раздачу! Помогайте другим, ведь вам тоже может понадобиться помощь!Не забываем говорить "Спасибо"!Комментарии приветствуются!
[teatrix.ru].t21710.torrent 
Торрент: Зарегистрирован [ 2016-03-20 12:55 ] · 8CEC6741D7EFDC0CF743B795390A6FB155E604D3

Скачать .torrent

Скачать

20 KB

Статус: проверено
Скачан: 0 раз
Размер: 955 MB
terms.php



Быстрый ответ

Имя:

      
Для отправки сообщений необходимо включить JavaScript
Показать сообщения:    

Текущее время: 08-Дек 01:18

Часовой пояс: UTC + 3


Вы можете начинать темы
Вы можете отвечать на сообщения
Вы не можете редактировать свои сообщения
Вы не можете удалять свои сообщения
Вы не можете голосовать в опросах
Вы не можете прикреплять файлы к сообщениям
Вы можете скачивать файлы