(Classical / Symphony / Orchestral) Johannes Brahms - Die Symphonien • Akademische Festouverture • Tragische Ouverture (Chicago Symphony Orchestra, Georg Solti, 1978/1979) - 1991 [4 CD], FLAC (tracks+.cue) lossless


 

[Цитировать]

Johannes Brahms | Йоханнес Брамс
(1833–1897)



Die Symphonien | Akademische Festouvertüre | Tragische Ouvertüre
Симфонии | Академическая праздничная увертюра | Трагическая увертюра


Chicago Symphony Orchestra
Georg Solti conductor


Жанр: Classical / Symphony / Orchestral
Даты записи: 1978, 1979
Формат записи: ADD, Stereo
Год издания диска: 1991
Издатель (лейбл): Decca
Номер по каталогу: 430 799-2
Аудиокодек: FLAC
Тип рипа: tracks+.cue
Битрейт аудио: lossless
Продолжительность: 3:20:08
Наличие сканов в содержимом раздачи: да (front/back)
Источник: What.CD
Релизёр: godofcops

-Tracklist / ТреклистCD 1: Symphonie Nr. 1
Symphonie Nr. 1 c-moll, Op. 68 - 48:57
I. Un poco sostenuto. — Allegro - 16:53
  • II. Andante sostenuto - 9:52
  • III. Un poco Allegretto e grazioso - 4:41
  • IV. Adagio. — Allegro non troppo, ma con brio - 17:31
    Recorded: Medinah Temple, Chicago, United States, January 1979
    CD 2: Symphonie Nr. 2 • Tragische Ouvertüre
    Symphonie Nr. 2 D-dur, Op. 73 - 45:43
    I. Allegro non troppo - 20:48
  • II. Adagio non troppo. — L'istesso tempo, ma grazioso - 10:33
  • III. Allegretto grazioso (quasi Andantino). — Presto ma non assai - 5:31
  • IV. Allegro con spirito - 8:51
    Recorded: Medinah Temple, Chicago, United States, January 1979
    Tragische Ouvertüre, Op. 81 - 13:27
    Recorded: Medinah Temple, Chicago, United States, May 1978
    CD 3: Symphonie Nr. 3 • Akademische Festouvertüre
    Symphonie Nr. 3 F-dur, Op. 90 - 39:09
    I. Allegro con brio - 13:56
  • II. Andante - 9:46
  • III. Poco Allegretto - 6:29
  • IV. Allegro - 8:58
    Recorded: Medinah Temple, Chicago, United States, May 1978
    Akademische Festouvertüre, Op. 80 - 10:35
    Recorded: Medinah Temple, Chicago, United States, May 1978
    CD 4: Symphonie Nr. 4
    Symphonie Nr. 4 e-moll, Op. 98 - 42:18
    I. Allegro non troppo - 12:45
  • II. Andante moderato - 12:58
  • III. Allegro giocoso. — Poco meno Presto. — Tempo I - 6:17
  • IV. Allegro energico e passionato. — Più Allegro - 10:18
    Recorded: Medinah Temple, Chicago, United States, May 1978-

    EAC logs / Отчёты EACCD 1: Symphonie Nr. 1

    Exact Audio Copy V0.99 prebeta 5 from 4. May 2009
    EAC extraction logfile from 14. May 2010, 8:55
    Chicago Symphony - Georg Solti / Brahms - The Symphonies CD1
    Used drive : HL-DT-STDVD-RAM GH40L Adapter: 1 ID: 0
    Read mode : Secure
    Utilize accurate stream : Yes
    Defeat audio cache : Yes
    Make use of C2 pointers : No
    Read offset correction : 667
    Overread into Lead-In and Lead-Out : No
    Fill up missing offset samples with silence : Yes
    Delete leading and trailing silent blocks : No
    Null samples used in CRC calculations : Yes
    Used interface : Native Win32 interface for Win NT & 2000
    Gap handling : Appended to previous track
    Used output format : User Defined Encoder
    Selected bitrate : 320 kBit/s
    Quality : High
    Add ID3 tag : No
    Command line compressor : C:\Program Files\Exact Audio Copy\Flac\flac.exe
    Additional command line options : -V -8 -T "artist=%a" -T "title=%t" -T "album=%g" -T "date=%y" -T "tracknumber=%n" -T "genre=%m" %s
    TOC of the extracted CD
    Track | Start | Length | Start sector | End sector
    ---------------------------------------------------------
    1 | 0:00.32 | 16:52.38 | 32 | 75969
    2 | 16:52.70 | 9:52.00 | 75970 | 120369
    3 | 26:44.70 | 4:41.22 | 120370 | 141466
    4 | 31:26.17 | 17:30.55 | 141467 | 220271
    Track 1
    Filename 01 Symphony No 1 in C minor, Op 68 -1) Un poco sostenuto - Allegro.wav
    Pre-gap length 0:00:02.42
    Peak level 80.7 %
    Track quality 100.0 %
    Test CRC 979DCC4E
    Copy CRC 979DCC4E
    Accurately ripped (confidence 9) [AAE7BF92]
    Copy OK
    Track 2
    Filename 02 Symphony No 1 in C minor, Op 68 -2) Andante sostenuto.wav
    Pre-gap length 0:00:05.80
    Peak level 53.9 %
    Track quality 100.0 %
    Test CRC 231D69C7
    Copy CRC 231D69C7
    Accurately ripped (confidence 10) [D634C2CB]
    Copy OK
    Track 3
    Filename 03 Symphony No 1 in C minor, Op 68 -3) Un poco allegretto e grazioso.wav
    Pre-gap length 0:00:03.37
    Peak level 47.6 %
    Track quality 100.0 %
    Test CRC 3487DA31
    Copy CRC 3487DA31
    Accurately ripped (confidence 10) [7625E77F]
    Copy OK
    Track 4
    Filename 04 Symphony No 1 in C minor, Op 68 -4) Adagio - Più andante - Allegro non troppo, ma con brio.wav
    Pre-gap length 0:00:01.26
    Peak level 97.2 %
    Track quality 100.0 %
    Test CRC E8250046
    Copy CRC E8250046
    Accurately ripped (confidence 10) [2301295F]
    Copy OK
    All tracks accurately ripped
    No errors occurred
    End of status report

    CD 2: Symphonie Nr. 2 • Tragische Ouvertüre

    Exact Audio Copy V0.99 prebeta 5 from 4. May 2009
    EAC extraction logfile from 14. May 2010, 9:40
    Chicago Symphony - Georg Solti / Brahms - The Symphonies CD2
    Used drive : HL-DT-STDVD-RAM GH40L Adapter: 1 ID: 0
    Read mode : Secure
    Utilize accurate stream : Yes
    Defeat audio cache : Yes
    Make use of C2 pointers : No
    Read offset correction : 667
    Overread into Lead-In and Lead-Out : No
    Fill up missing offset samples with silence : Yes
    Delete leading and trailing silent blocks : No
    Null samples used in CRC calculations : Yes
    Used interface : Native Win32 interface for Win NT & 2000
    Gap handling : Appended to previous track
    Used output format : User Defined Encoder
    Selected bitrate : 320 kBit/s
    Quality : High
    Add ID3 tag : No
    Command line compressor : C:\Program Files\Exact Audio Copy\Flac\flac.exe
    Additional command line options : -V -8 -T "artist=%a" -T "title=%t" -T "album=%g" -T "date=%y" -T "tracknumber=%n" -T "genre=%m" %s
    TOC of the extracted CD
    Track | Start | Length | Start sector | End sector
    ---------------------------------------------------------
    1 | 0:00.32 | 20:47.73 | 32 | 93629
    2 | 20:48.30 | 10:33.35 | 93630 | 141139
    3 | 31:21.65 | 5:30.42 | 141140 | 165931
    4 | 36:52.32 | 8:50.73 | 165932 | 205754
    5 | 45:43.30 | 13:26.52 | 205755 | 266256
    Track 1
    Filename 01 Symphony No 2 in D, Op 73 -1) Allegro non troppo.wav
    Pre-gap length 0:00:02.42
    Peak level 93.9 %
    Track quality 100.0 %
    Test CRC BC99A35E
    Copy CRC BC99A35E
    Accurately ripped (confidence 4) [D89A6891]
    Copy OK
    Track 2
    Filename 02 Symphony No 2 in D, Op 73 -2) Adagio non troppo.wav
    Pre-gap length 0:00:05.13
    Peak level 83.1 %
    Track quality 100.0 %
    Test CRC A593717D
    Copy CRC A593717D
    Accurately ripped (confidence 4) [C7FF7AA9]
    Copy OK
    Track 3
    Filename 03 Symphony No 2 in D, Op 73 -3) Allegretto grazioso (Quasi andantino) - Presto ma non assai.wav
    Pre-gap length 0:00:04.26
    Peak level 59.1 %
    Track quality 100.0 %
    Test CRC 0EA55AE2
    Copy CRC 0EA55AE2
    Accurately ripped (confidence 4) [45233816]
    Copy OK
    Track 4
    Filename 04 Symphony No 2 in D, Op 73 -4) Allegro con spirito.wav
    Pre-gap length 0:00:02.76
    Peak level 89.5 %
    Track quality 99.9 %
    Test CRC 6A4D26E2
    Copy CRC 6A4D26E2
    Accurately ripped (confidence 4) [4478DAA0]
    Copy OK
    Track 5
    Filename 05 Tragic Overture, Op 81.wav
    Pre-gap length 0:00:09.97
    Peak level 89.3 %
    Track quality 100.0 %
    Test CRC B0A579FC
    Copy CRC B0A579FC
    Accurately ripped (confidence 4) [848E670D]
    Copy OK
    All tracks accurately ripped
    No errors occurred
    End of status report

    CD 3: Symphonie Nr. 3 • Akademische Festouvertüre

    Exact Audio Copy V0.99 prebeta 5 from 4. May 2009
    EAC extraction logfile from 14. May 2010, 10:18
    Chicago Symphony - Georg Solti / Brahms - The Symphonies CD3
    Used drive : HL-DT-STDVD-RAM GH40L Adapter: 1 ID: 0
    Read mode : Secure
    Utilize accurate stream : Yes
    Defeat audio cache : Yes
    Make use of C2 pointers : No
    Read offset correction : 667
    Overread into Lead-In and Lead-Out : No
    Fill up missing offset samples with silence : Yes
    Delete leading and trailing silent blocks : No
    Null samples used in CRC calculations : Yes
    Used interface : Native Win32 interface for Win NT & 2000
    Gap handling : Appended to previous track
    Used output format : User Defined Encoder
    Selected bitrate : 320 kBit/s
    Quality : High
    Add ID3 tag : No
    Command line compressor : C:\Program Files\Exact Audio Copy\Flac\flac.exe
    Additional command line options : -V -8 -T "artist=%a" -T "title=%t" -T "album=%g" -T "date=%y" -T "tracknumber=%n" -T "genre=%m" %s
    TOC of the extracted CD
    Track | Start | Length | Start sector | End sector
    ---------------------------------------------------------
    1 | 0:00.33 | 13:55.55 | 33 | 62712
    2 | 13:56.13 | 9:45.45 | 62713 | 106632
    3 | 23:41.58 | 6:29.07 | 106633 | 135814
    4 | 30:10.65 | 8:58.25 | 135815 | 176189
    5 | 39:09.15 | 10:34.65 | 176190 | 223804
    Track 1
    Filename 01 Symphony No 3 in F, Op 90 -1) Allegro con brio.wav
    Pre-gap length 0:00:02.44
    Peak level 86.7 %
    Track quality 100.0 %
    Test CRC D5583B91
    Copy CRC D5583B91
    Accurately ripped (confidence 4) [FE18F8FF]
    Copy OK
    Track 2
    Filename 02 Symphony No 3 in F, Op 90 -2) Andante.wav
    Pre-gap length 0:00:03.57
    Peak level 63.7 %
    Track quality 100.0 %
    Test CRC 8BA41551
    Copy CRC 8BA41551
    Accurately ripped (confidence 4) [99CDF84C]
    Copy OK
    Track 3
    Filename 03 Symphony No 3 in F, Op 90 -3) Poco allegretto.wav
    Pre-gap length 0:00:03.64
    Peak level 47.1 %
    Track quality 100.0 %
    Test CRC 19D4E9F4
    Copy CRC 19D4E9F4
    Accurately ripped (confidence 4) [AE4222B9]
    Copy OK
    Track 4
    Filename 04 Symphony No 3 in F, Op 90 -4) Allegro.wav
    Pre-gap length 0:00:03.13
    Peak level 97.5 %
    Track quality 100.0 %
    Test CRC 007EF650
    Copy CRC 007EF650
    Accurately ripped (confidence 4) [8386C49B]
    Copy OK
    Track 5
    Filename 05 Academic Festival Overture, Op 80.wav
    Pre-gap length 0:00:07.46
    Peak level 100.0 %
    Track quality 100.0 %
    Test CRC 068F4898
    Copy CRC 068F4898
    Accurately ripped (confidence 4) [48E331EF]
    Copy OK
    All tracks accurately ripped
    No errors occurred
    End of status report

    CD 4: Symphonie Nr. 4

    Exact Audio Copy V0.99 prebeta 5 from 4. May 2009
    EAC extraction logfile from 14. May 2010, 11:27
    Chicago Symphony - Georg Solti / Brahms - The Symphonies CD4
    Used drive : HL-DT-STDVD-RAM GH40L Adapter: 1 ID: 0
    Read mode : Secure
    Utilize accurate stream : Yes
    Defeat audio cache : Yes
    Make use of C2 pointers : No
    Read offset correction : 667
    Overread into Lead-In and Lead-Out : No
    Fill up missing offset samples with silence : Yes
    Delete leading and trailing silent blocks : No
    Null samples used in CRC calculations : Yes
    Used interface : Native Win32 interface for Win NT & 2000
    Gap handling : Appended to previous track
    Used output format : User Defined Encoder
    Selected bitrate : 320 kBit/s
    Quality : High
    Add ID3 tag : No
    Command line compressor : C:\Program Files\Exact Audio Copy\Flac\flac.exe
    Additional command line options : -V -8 -T "artist=%a" -T "title=%t" -T "album=%g" -T "date=%y" -T "tracknumber=%n" -T "genre=%m" %s
    TOC of the extracted CD
    Track | Start | Length | Start sector | End sector
    ---------------------------------------------------------
    1 | 0:00.33 | 12:44.55 | 33 | 57387
    2 | 12:45.13 | 12:57.52 | 57388 | 115714
    3 | 25:42.65 | 6:17.23 | 115715 | 144012
    4 | 32:00.13 | 10:18.10 | 144013 | 190372
    Track 1
    Filename 01 Symphony No 4 in E minor, Op 98 -1) Allegro non troppo.wav
    Pre-gap length 0:00:02.44
    Peak level 94.3 %
    Track quality 99.9 %
    Test CRC 01633E8A
    Copy CRC 01633E8A
    Accurately ripped (confidence 3) [FE3B4C2F]
    Copy OK
    Track 2
    Filename 02 Symphony No 4 in E minor, Op 98 -2) Andante moderato.wav
    Pre-gap length 0:00:04.17
    Peak level 64.0 %
    Track quality 99.9 %
    Test CRC B18349F4
    Copy CRC B18349F4
    Accurately ripped (confidence 4) [4D12594D]
    Copy OK
    Track 3
    Filename 03 Symphony No 4 in E minor, Op 98 -3) Allegro giocoso.wav
    Pre-gap length 0:00:05.06
    Peak level 84.3 %
    Track quality 100.0 %
    Test CRC 3CFFC303
    Copy CRC 3CFFC303
    Accurately ripped (confidence 4) [A5531DB0]
    Copy OK
    Track 4
    Filename 04 Symphony No 4 in E minor, Op 98 -4) Allegro energico e passionato.wav
    Pre-gap length 0:00:04.50
    Peak level 96.0 %
    Track quality 100.0 %
    Test CRC F7A62617
    Copy CRC F7A62617
    Accurately ripped (confidence 4) [CF7D5373]
    Copy OK
    All tracks accurately ripped
    No errors occurred
    End of status report

    auCDtect Task Manager logs / Отчёты auCDtect Task ManagerCD 1: Symphonie Nr. 1

    -----------------------
    DON'T MODIFY THIS FILE
    -----------------------
    PERFORMER: auCDtect Task Manager, ver. 1.5.1RC3 build 1.5.1.4
    Copyright (c) 2008-2010 y-soft. All rights reserved
    ANALYZER: auCDtect: CD records authenticity detector, version 0.8.2
    Copyright (c) 2004 Oleg Berngardt. All rights reserved.
    Copyright (c) 2004 Alexander Djourik. All rights reserved.
    FILE: 04 - Symphonie Nr. 1 - IV. Adagio. - Allegro non troppo, ma con brio.flac
    Size: 84913688 Hash: 357243C5374568AD5B35FF49E5922179 Accuracy: -m0
    Conclusion: CDDA 100%
    Signature: 850C9CAEFB1890E9EBE9538036DD3AEEE7B4ABEB
    FILE: 03 - Symphonie Nr. 1 - III. Un poco Allegretto e grazioso.flac
    Size: 19965088 Hash: 3AD9210D6D0DD76FD67320E27A09D36B Accuracy: -m0
    Conclusion: CDDA 100%
    Signature: 6168273E3EC33D23103233D8C3A9C90059F77F9A
    FILE: 02 - Symphonie Nr. 1 - II. Andante sostenuto.flac
    Size: 40957409 Hash: 74649AC27BAA55FF259AA192B0F228F6 Accuracy: -m0
    Conclusion: CDDA 100%
    Signature: 4F7F01EF3C832764EA729F5D1DCCA90765A31630
    FILE: 01 - Symphonie Nr. 1 - I. Un poco sostenuto. - Allegro.flac
    Size: 78704223 Hash: FE5DF563432733D743B250472B85B6B2 Accuracy: -m0
    Conclusion: CDDA 100%
    Signature: 3AD8D78D454A270A629AD988981E35DCE296E45D

    CD 2: Symphonie Nr. 2 • Tragische Ouvertüre

    -----------------------
    DON'T MODIFY THIS FILE
    -----------------------
    PERFORMER: auCDtect Task Manager, ver. 1.5.1RC3 build 1.5.1.4
    Copyright (c) 2008-2010 y-soft. All rights reserved
    ANALYZER: auCDtect: CD records authenticity detector, version 0.8.2
    Copyright (c) 2004 Oleg Berngardt. All rights reserved.
    Copyright (c) 2004 Alexander Djourik. All rights reserved.
    FILE: 05 - Tragische Ouvertuere.flac
    Size: 60748068 Hash: 5D74DEA6FA48982C34204807099EE8AC Accuracy: -m0
    Conclusion: CDDA 100%
    Signature: CC0BB90E09C89155C6376B638CE4F164717C6C44
    FILE: 04 - Symphonie Nr. 2 - IV. Allegro con spirito.flac
    Size: 43444875 Hash: 1322EA5B5F855B453F52DB194061E146 Accuracy: -m0
    Conclusion: CDDA 100%
    Signature: 6BD4B8EC6DE31637D7F0797184A7ADBCEA0ABA8A
    FILE: 03 - Symphonie Nr. 2 - III. Allegretto grazioso. - Presto ma non assai.flac
    Size: 20514789 Hash: BCE25DB8225C43842BE61AE849B388EB Accuracy: -m0
    Conclusion: CDDA 100%
    Signature: 8276651552B478F6A4D6F5D392BA48563C318B13
    FILE: 02 - Symphonie Nr. 2 - II. Adagio non troppo.flac
    Size: 46348520 Hash: 9B6CFDD05CF471DCD6EDF0D9E6472CF3 Accuracy: -m0
    Conclusion: CDDA 100%
    Signature: 1E4C26A46DBD7388C4F8C96DD38ADD5AD6DFE003
    FILE: 01 - Symphonie Nr. 2 - I. Allegro non troppo.flac
    Size: 93120690 Hash: BB03886F54758BE6C3769F18F4B247C8 Accuracy: -m0
    Conclusion: CDDA 100%
    Signature: 71885E481A6B7D08C239A5E5470243503D29A15D

    CD 3: Symphonie Nr. 3 • Akademische Festouvertüre

    -----------------------
    DON'T MODIFY THIS FILE
    -----------------------
    PERFORMER: auCDtect Task Manager, ver. 1.5.1RC3 build 1.5.1.4
    Copyright (c) 2008-2010 y-soft. All rights reserved
    ANALYZER: auCDtect: CD records authenticity detector, version 0.8.2
    Copyright (c) 2004 Oleg Berngardt. All rights reserved.
    Copyright (c) 2004 Alexander Djourik. All rights reserved.
    FILE: 05 - Akademische Festouvertuere.flac
    Size: 50757937 Hash: F524863AD63D69978A35BC9A84B38070 Accuracy: -m0
    Conclusion: CDDA 99%
    Signature: 5050C95769C1733409C041A717A619AADC63EB04
    FILE: 04 - Symphonie Nr. 3 - IV. Allegro.flac
    Size: 41801261 Hash: 34DAC84AAC8C1D1A74E02398590EE83E Accuracy: -m0
    Conclusion: CDDA 100%
    Signature: B6F1F5CC616F8CC41240DFB17F698CDCB92C7F8D
    FILE: 03 - Symphonie Nr. 3 - III. Poco Allegretto.flac
    Size: 25515206 Hash: 1F367B3517A3EB68DF602CFC42584983 Accuracy: -m0
    Conclusion: CDDA 100%
    Signature: C32F4FB5467514F8DE991912036A176CD81FAC27
    FILE: 02 - Symphonie Nr. 3 - II. Andante.flac
    Size: 38358640 Hash: 9FA402D3C8285D09EEFB14D45F7F1280 Accuracy: -m0
    Conclusion: CDDA 100%
    Signature: 74CBDF4C3A8CD5F4712C8BC557F709AA1E57118E
    FILE: 01 - Symphonie Nr. 3 - I. Allegro con brio.flac
    Size: 62819973 Hash: 7BBEA79E84EE20C83B1E0438E9802C2A Accuracy: -m0
    Conclusion: CDDA 99%
    Signature: 50E8C14420F4307D1ECE927571EBB6150BD89EC2

    CD 4: Symphonie Nr. 4

    -----------------------
    DON'T MODIFY THIS FILE
    -----------------------
    PERFORMER: auCDtect Task Manager, ver. 1.5.1RC3 build 1.5.1.4
    Copyright (c) 2008-2010 y-soft. All rights reserved
    ANALYZER: auCDtect: CD records authenticity detector, version 0.8.2
    Copyright (c) 2004 Oleg Berngardt. All rights reserved.
    Copyright (c) 2004 Alexander Djourik. All rights reserved.
    FILE: 04 - Symphonie Nr. 4 - IV. Allegro energico e passionato.flac
    Size: 46978619 Hash: CB982250BCDF27C059F85743E4AFCB7B Accuracy: -m0
    Conclusion: CDDA 99%
    Signature: C548329D5F032CD3F1EC2F6706A1B0706E59FFBD
    FILE: 03 - Symphonie Nr. 4 - III. Allegro giocoso.flac
    Size: 30879391 Hash: 557908BE01BD6FD9A9423F4397A0AE09 Accuracy: -m0
    Conclusion: CDDA 99%
    Signature: 7B29B05A0712AEAA308D935A8D405D2A5679FE35
    FILE: 02 - Symphonie Nr. 4 - II. Andante moderato.flac
    Size: 50211414 Hash: 73C286CE6C60C8FED40DA315487F4DAB Accuracy: -m0
    Conclusion: CDDA 99%
    Signature: 61E60965A1D6640A1BECA86E3AA6C50C6C4E53A0
    FILE: 01 - Symphonie Nr. 4 - I. Allegro non troppo.flac
    Size: 61412845 Hash: ABC0926ECDA41EF73236F557211B90F5 Accuracy: -m0
    Conclusion: CDDA 100%
    Signature: 4E3857A05D6187C9272EC7E0FA30118E7C6F0C0F

    CUETools logs / Отчёты CUEToolsCD 1: Symphonie Nr. 1

    [CUETools log; Date: 10.07.2015 23:30:11; Version: 2.1.4]
    Pregap length 00:00:32.
    [AccurateRip ID: 0008841f-002144d6-2e0b7804] found.
    Track [ CRC | V2 ] Status
    01 [aae7bf92|1eaa97cd] (013+016/119) Accurately ripped
    02 [d634c2cb|ba9bdfcf] (014+016/115) Accurately ripped
    03 [7625e77f|9527d307] (014+016/120) Accurately ripped
    04 [2301295f|d45b5ca2] (014+016/116) Accurately ripped
    Offsetted by -1483:
    01 [a02337fe] (009/119) Accurately ripped
    02 [e026aa27] (009/115) Accurately ripped
    03 [9ae3e388] (009/120) Accurately ripped
    04 [92951a6d] (009/116) Accurately ripped
    Offsetted by -668:
    01 [ba6cb302] (003/119) Accurately ripped
    02 [5a14dcfb] (003/115) Accurately ripped
    03 [573a0e73] (003/120) Accurately ripped
    04 [f7dfd9f7] (002/116) Accurately ripped
    Track Peak [ CRC32 ] [W/O NULL] [ LOG ]
    -- 97,2 [FA2F7131] [A650E377]
    01 80,7 [979DCC4E] [9FBCEFA0] CRC32
    02 53,9 [231D69C7] [3086D332] CRC32
    03 47,6 [3487DA31] [1188E421] CRC32
    04 97,2 [E8250046] [BEF9250A] CRC32

    CD 2: Symphonie Nr. 2 • Tragische Ouvertüre

    [CUETools log; Date: 10.07.2015 23:30:27; Version: 2.1.4]
    Pregap length 00:00:32.
    [AccurateRip ID: 000d512a-003b8555-390dde05] found.
    Track [ CRC | V2 ] Status
    01 [d89a6891|5c4ba6cb] (007+009/116) Accurately ripped
    02 [c7ff7aa9|10f242a1] (007+010/119) Accurately ripped
    03 [45233816|32ab8dd0] (006+009/117) Accurately ripped
    04 [4478daa0|1072db57] (006+010/116) Accurately ripped
    05 [848e670d|90a26081] (007+010/113) Accurately ripped
    Offsetted by -18:
    01 [920af749] (008/116) Accurately ripped
    02 [4ecb36e1] (008/119) Accurately ripped
    03 [871b6e8a] (008/117) Accurately ripped
    04 [02a4a3b4] (007/116) Accurately ripped
    05 [cdd53589] (006/113) Accurately ripped
    Offsetted by 153:
    01 [b05dab75] (008/116) Accurately ripped
    02 [4e3bbacd] (008/119) Accurately ripped
    03 [9465693c] (008/117) Accurately ripped
    04 [7404ad76] (008/116) Accurately ripped
    05 [15b48bef] (008/113) Accurately ripped
    Track Peak [ CRC32 ] [W/O NULL] [ LOG ]
    -- 93,9 [D2BA0193] [8862719E]
    01 93,9 [BC99A35E] [F3815C0D] CRC32
    02 83,1 [A593717D] [E419C269] CRC32
    03 59,1 [0EA55AE2] [D1B03731] CRC32
    04 89,5 [6A4D26E2] [F13E0CE1] CRC32
    05 89,3 [B0A579FC] [0BEA8B81] CRC32

    CD 3: Symphonie Nr. 3 • Akademische Festouvertüre

    [CUETools log; Date: 10.07.2015 23:30:37; Version: 2.1.4]
    Pregap length 00:00:33.
    [AccurateRip ID: 000ac2a5-0031046e-360ba805] found.
    Track [ CRC | V2 ] Status
    01 [fe18f8ff|a342af27] (06+08/82) Accurately ripped
    02 [99cdf84c|e45e2b69] (06+08/82) Accurately ripped
    03 [ae4222b9|8408815e] (06+08/82) Accurately ripped
    04 [8386c49b|8e638012] (06+08/82) Accurately ripped
    05 [48e331ef|2abe8cd4] (06+08/82) Accurately ripped
    Offsetted by -136:
    01 [4023673f] (08/82) Accurately ripped
    02 [2483edf4] (08/82) Accurately ripped
    03 [9e2877c9] (08/82) Accurately ripped
    04 [cc8b1eeb] (08/82) Accurately ripped
    05 [71f22cef] (08/82) Accurately ripped
    Track Peak [ CRC32 ] [W/O NULL] [ LOG ]
    -- 100,0 [E3328E5C] [B90053FF]
    01 86,7 [D5583B91] [6A79FACD] CRC32
    02 63,7 [8BA41551] [0CE7E341] CRC32
    03 47,1 [19D4E9F4] [28373DDD] CRC32
    04 97,5 [007EF650] [BAD230C6] CRC32
    05 100,0 [068F4898] [A4F7D237] CRC32

    CD 4: Symphonie Nr. 4

    [CUETools log; Date: 10.07.2015 23:30:45; Version: 2.1.4]
    Pregap length 00:00:33.
    [AccurateRip ID: 0007be82-001e5cef-3209ea04] found.
    Track [ CRC | V2 ] Status
    01 [fe3b4c2f|bc92db71] (004+009/109) Accurately ripped
    02 [4d12594d|3615856f] (005+009/112) Accurately ripped
    03 [a5531db0|a98ad06d] (005+010/114) Accurately ripped
    04 [cf7d5373|c2adfa94] (005+010/112) Accurately ripped
    Offsetted by 271:
    01 [9df53bd1] (009/109) Accurately ripped
    02 [b49fba16] (009/112) Accurately ripped
    03 [7b646c11] (009/114) Accurately ripped
    04 [1c289962] (009/112) Accurately ripped
    Track Peak [ CRC32 ] [W/O NULL] [ LOG ]
    -- 96,0 [A734363D] [03C1C67F]
    01 94,3 [01633E8A] [33514CE7] CRC32
    02 64,0 [B18349F4] [906F313A] CRC32
    03 84,3 [3CFFC303] [A0573563] CRC32
    04 96,0 [F7A62617] [8B06F3AE] CRC32

    CUE sheetsCD 1: Symphonie Nr. 1

    TITLE "Johannes Brahms: Symphonien • Ouvertüren"
    PERFORMER "Georg Solti"
    REM GENRE Classical
    REM DISCID 2E0B7804
    REM COMMENT "ExactAudioCopy v0.99pb5"
    FILE "01 - Symphonie Nr. 1 - I. Un poco sostenuto. - Allegro.flac" WAVE
    TRACK 01 AUDIO
    TITLE "Symphonie Nr. 1 c-moll, Op. 68: I. Un poco sostenuto. — Allegro"
    PERFORMER "Chicago Symphony Orchestra. Georg Solti, conductor"
    REM DATE 1979
    PREGAP 00:00:32
    INDEX 01 00:00:00
    TRACK 02 AUDIO
    TITLE "Symphonie Nr. 1 c-moll, Op. 68: II. Andante sostenuto"
    PERFORMER "Chicago Symphony Orchestra. Georg Solti, conductor"
    REM DATE 1979
    INDEX 00 16:46:53
    FILE "02 - Symphonie Nr. 1 - II. Andante sostenuto.flac" WAVE
    INDEX 01 00:00:00
    TRACK 03 AUDIO
    TITLE "Symphonie Nr. 1 c-moll, Op. 68: III. Un poco Allegretto e grazioso"
    PERFORMER "Chicago Symphony Orchestra. Georg Solti, conductor"
    REM DATE 1979
    INDEX 00 09:48:47
    FILE "03 - Symphonie Nr. 1 - III. Un poco Allegretto e grazioso.flac" WAVE
    INDEX 01 00:00:00
    TRACK 04 AUDIO
    TITLE "Symphonie Nr. 1 c-moll, Op. 68: IV. Adagio. — Allegro non troppo, ma con brio"
    PERFORMER "Chicago Symphony Orchestra. Georg Solti, conductor"
    REM DATE 1979
    INDEX 00 04:40:02
    FILE "04 - Symphonie Nr. 1 - IV. Adagio. - Allegro non troppo, ma con brio.flac" WAVE
    INDEX 01 00:00:00

    CD 2: Symphonie Nr. 2 • Tragische Ouvertüre

    TITLE "Johannes Brahms: Symphonien • Ouvertüren"
    PERFORMER "Georg Solti"
    REM GENRE Classical
    REM DISCID 390DDE05
    REM COMMENT "ExactAudioCopy v0.99pb5"
    FILE "01 - Symphonie Nr. 2 - I. Allegro non troppo.flac" WAVE
    TRACK 01 AUDIO
    TITLE "Symphonie Nr. 2 D-dur, Op. 73: I. Allegro non troppo"
    PERFORMER "Chicago Symphony Orchestra. Georg Solti, conductor"
    REM DATE 1979
    PREGAP 00:00:32
    INDEX 01 00:00:00
    TRACK 02 AUDIO
    TITLE "Symphonie Nr. 2 D-dur, Op. 73: II. Adagio non troppo. — L'istesso tempo, ma grazioso"
    PERFORMER "Chicago Symphony Orchestra. Georg Solti, conductor"
    REM DATE 1979
    INDEX 00 20:42:63
    FILE "02 - Symphonie Nr. 2 - II. Adagio non troppo.flac" WAVE
    INDEX 01 00:00:00
    TRACK 03 AUDIO
    TITLE "Symphonie Nr. 2 D-dur, Op. 73: III. Allegretto grazioso (quasi Andantino). — Presto ma non assai"
    PERFORMER "Chicago Symphony Orchestra. Georg Solti, conductor"
    REM DATE 1979
    INDEX 00 10:29:15
    FILE "03 - Symphonie Nr. 2 - III. Allegretto grazioso. - Presto ma non assai.flac" WAVE
    INDEX 01 00:00:00
    TRACK 04 AUDIO
    TITLE "Symphonie Nr. 2 D-dur, Op. 73: IV. Allegro con spirito"
    PERFORMER "Chicago Symphony Orchestra. Georg Solti, conductor"
    REM DATE 1979
    INDEX 00 05:27:60
    FILE "04 - Symphonie Nr. 2 - IV. Allegro con spirito.flac" WAVE
    INDEX 01 00:00:00
    TRACK 05 AUDIO
    TITLE "Tragische Ouvertüre, Op. 81"
    PERFORMER "Chicago Symphony Orchestra. Georg Solti, conductor"
    REM DATE 1978
    INDEX 00 08:41:00
    FILE "05 - Tragische Ouvertuere.flac" WAVE
    INDEX 01 00:00:00

    CD 3: Symphonie Nr. 3 • Akademische Festouvertüre

    TITLE "Johannes Brahms: Symphonien • Ouvertüren"
    PERFORMER "Georg Solti"
    REM GENRE Classical
    REM DISCID 360BA805
    REM COMMENT "ExactAudioCopy v0.99pb5"
    FILE "01 - Symphonie Nr. 3 - I. Allegro con brio.flac" WAVE
    TRACK 01 AUDIO
    TITLE "Symphonie Nr. 3 F-dur, Op. 90: I. Allegro con brio"
    PERFORMER "Chicago Symphony Orchestra. Georg Solti, conductor"
    REM DATE 1978
    PREGAP 00:00:33
    INDEX 01 00:00:00
    TRACK 02 AUDIO
    TITLE "Symphonie Nr. 3 F-dur, Op. 90: II. Andante"
    PERFORMER "Chicago Symphony Orchestra. Georg Solti, conductor"
    REM DATE 1978
    INDEX 00 13:52:12
    FILE "02 - Symphonie Nr. 3 - II. Andante.flac" WAVE
    INDEX 01 00:00:00
    TRACK 03 AUDIO
    TITLE "Symphonie Nr. 3 F-dur, Op. 90: III. Poco Allegretto"
    PERFORMER "Chicago Symphony Orchestra. Georg Solti, conductor"
    REM DATE 1978
    INDEX 00 09:41:72
    FILE "03 - Symphonie Nr. 3 - III. Poco Allegretto.flac" WAVE
    INDEX 01 00:00:00
    TRACK 04 AUDIO
    TITLE "Symphonie Nr. 3 F-dur, Op. 90: IV. Allegro"
    PERFORMER "Chicago Symphony Orchestra. Georg Solti, conductor"
    REM DATE 1978
    INDEX 00 06:25:72
    FILE "04 - Symphonie Nr. 3 - IV. Allegro.flac" WAVE
    INDEX 01 00:00:00
    TRACK 05 AUDIO
    TITLE "Akademische Festouvertüre, Op. 80"
    PERFORMER "Chicago Symphony Orchestra. Georg Solti, conductor"
    REM DATE 1978
    INDEX 00 08:50:65
    FILE "05 - Akademische Festouvertuere.flac" WAVE
    INDEX 01 00:00:00

    CD 4: Symphonie Nr. 4

    TITLE "Johannes Brahms: Symphonien • Ouvertüren"
    PERFORMER "Georg Solti"
    REM GENRE Classical
    REM DISCID 3209EA04
    REM COMMENT "ExactAudioCopy v0.99pb5"
    FILE "01 - Symphonie Nr. 4 - I. Allegro non troppo.flac" WAVE
    TRACK 01 AUDIO
    TITLE "Symphonie Nr. 4 e-moll, Op. 98: I. Allegro non troppo"
    PERFORMER "Chicago Symphony Orchestra. Georg Solti, conductor"
    REM DATE 1978
    PREGAP 00:00:33
    INDEX 01 00:00:00
    TRACK 02 AUDIO
    TITLE "Symphonie Nr. 4 e-moll, Op. 98: II. Andante moderato"
    PERFORMER "Chicago Symphony Orchestra. Georg Solti, conductor"
    REM DATE 1978
    INDEX 00 12:40:42
    FILE "02 - Symphonie Nr. 4 - II. Andante moderato.flac" WAVE
    INDEX 01 00:00:00
    TRACK 03 AUDIO
    TITLE "Symphonie Nr. 4 e-moll, Op. 98: III. Allegro giocoso. — Poco meno Presto. — Tempo I"
    PERFORMER "Chicago Symphony Orchestra. Georg Solti, conductor"
    REM DATE 1978
    INDEX 00 12:52:47
    FILE "03 - Symphonie Nr. 4 - III. Allegro giocoso.flac" WAVE
    INDEX 01 00:00:00
    TRACK 04 AUDIO
    TITLE "Symphonie Nr. 4 e-moll, Op. 98: IV. Allegro energico e passionato. — Più Allegro"
    PERFORMER "Chicago Symphony Orchestra. Georg Solti, conductor"
    REM DATE 1978
    INDEX 00 06:12:60
    FILE "04 - Symphonie Nr. 4 - IV. Allegro energico e passionato.flac" WAVE
    INDEX 01 00:00:00



  • Показать сообщения:    

    Текущее время: 04-Дек 21:26

    Часовой пояс: UTC + 3


    Вы не можете начинать темы
    Вы не можете отвечать на сообщения
    Вы не можете редактировать свои сообщения
    Вы не можете удалять свои сообщения
    Вы не можете голосовать в опросах
    Вы не можете прикреплять файлы к сообщениям
    Вы не можете скачивать файлы