(Classical) Olivier Messiaen · Eclairs sur l’au-dela... / Illuminations of the beyond... (Orchestre de l’Opéra/l’Opera Bastille · Myung-Whun Chung) · 1994, FLAC (tracks+.cue) lossless


 

[Цитировать]

Olivier Messiaen
Éclairs sur l’au-delà...
Жанр: classical
Страна-производитель диска: ФРГ
Год издания диска: 1994
Издатель: Deutsche Grammophon
Номер по каталогу: 439 929-2
Дата записи: октябрь 1993
Аудиокодек: FLAC
Тип рипа: tracks+.cue
Битрейт аудио: lossless
Продолжительность: 01:04:56
Источник: скачано с what.cd
Сканы в содержимом раздачи отсутствуют
Исполнители:
Orchestre de l’Opéra Bastille
Myung-Whun Chung (кондуктор)

Треклист

01. Apparition du Christ glorieux (6:54)
02. La Constellation du Sagittaire (6:19)
03. L’Oiseau-lyre et la Ville-fiancée (4:01)
04. Les Élus marqués du sceau (2:20)
05. Demeurer dans l’Amour... (10:20)
06. Les Sept Anges aux sept trompettes (5:48)
07. Et Dieu essuiera tout larme de leurs yeux... (3:19)
08. Les Étoiles et la Gloire (11:25)
09. Plusieurs oiseaux des arbres de Vie (2:48)
10. Le Chemin de l’Invisible (3:36)
11. Le Christ, lumière du Paradis (8:06)

Лог создания рипа

X Lossless Decoder version 20120120 (139.0)
XLD extraction logfile from 2012-02-08 14:03:55 +0100
Olivier Messiaen - Myung-Whun Chung - Bastille Opera Orchestra / Éclairs Sur L'Au-Delà... (Illuminations Of The Beyond)
Used drive : MATSHITA DVD-R UJ-857 (revision HAEA)
Ripper mode : XLD Secure Ripper
Disable audio cache : OK for the drive with a cache less than 1375KiB
Make use of C2 pointers : NO
Read offset correction : 102
Max retry count : 20
Gap status : Analyzed, Appended (except HTOA)
TOC of the extracted CD
Track | Start | Length | Start sector | End sector
---------------------------------------------------------
1 | 00:00:33 | 06:54:00 | 33 | 31082
2 | 06:54:33 | 06:19:00 | 31083 | 59507
3 | 13:13:33 | 04:01:00 | 59508 | 77582
4 | 17:14:33 | 02:20:00 | 77583 | 88082
5 | 19:34:33 | 10:20:00 | 88083 | 134582
6 | 29:54:33 | 05:48:00 | 134583 | 160682
7 | 35:42:33 | 03:19:00 | 160683 | 175607
8 | 39:01:33 | 11:25:00 | 175608 | 226982
9 | 50:26:33 | 02:48:00 | 226983 | 239582
10 | 53:14:33 | 03:36:00 | 239583 | 255782
11 | 56:50:33 | 08:06:00 | 255783 | 292232
List of alternate offset correction values
# | Absolute | Relative | Confidence
------------------------------------------
1 | 783 | 681 | 15
2 | 2081 | 1979 | 14
AccurateRip Summary
Track 01 : OK (confidence 2)
Track 02 : OK (confidence 2)
Track 03 : OK (confidence 2)
Track 04 : OK (confidence 2)
Track 05 : OK (confidence 2)
Track 06 : OK (confidence 2)
Track 07 : OK (confidence 2)
Track 08 : OK (confidence 2)
Track 09 : OK (confidence 2)
Track 10 : OK (confidence 2)
Track 11 : OK (confidence 2)
->All tracks accurately ripped.
All Tracks
Album gain : 2.28 dB
Peak : 0.999939
Statistics
Read error : 0
Jitter error (maybe fixed) : 0
Retry sector count : 0
Damaged sector count : 0
Track 01
Filename : /Users/admin/Music/tahw/Olivier Messiaen - Éclairs Sur L'Au-Delà - Orchestre De L'Opéra Bastille, Myung-Whun Chung/Olivier Messiaen - Myung-Whun Chung - Bastille Opera Orchestra - Éclairs Sur L'Au-Delà... (Illuminations Of The Beyond) (1994) [FLAC]/01 Messiaen: Éclairs Sur L'Au-Delà - 1. Apparition Du Christ Glorieux.flac
Pre-gap length : 00:02:33
Track gain : 4.79 dB
Peak : 0.543396
CRC32 hash (test run) : 0840E8AE
CRC32 hash : 0840E8AE
CRC32 hash (skip zero) : 7A75E42C
AccurateRip signature : 31559878
->Accurately ripped! (confidence 2)
Statistics
Read error : 0
Jitter error (maybe fixed) : 0
Retry sector count : 0
Damaged sector count : 0
Track 02
Filename : /Users/admin/Music/tahw/Olivier Messiaen - Éclairs Sur L'Au-Delà - Orchestre De L'Opéra Bastille, Myung-Whun Chung/Olivier Messiaen - Myung-Whun Chung - Bastille Opera Orchestra - Éclairs Sur L'Au-Delà... (Illuminations Of The Beyond) (1994) [FLAC]/02 Messiaen: Éclairs Sur L'Au-Delà - 2. La Constellation Du Sagittaire.flac
Track gain : 5.69 dB
Peak : 0.468903
CRC32 hash (test run) : 79C1F2DD
CRC32 hash : 79C1F2DD
CRC32 hash (skip zero) : CB6EA87F
AccurateRip signature : 19751055
->Accurately ripped! (confidence 2)
Statistics
Read error : 0
Jitter error (maybe fixed) : 0
Retry sector count : 0
Damaged sector count : 0
Track 03
Filename : /Users/admin/Music/tahw/Olivier Messiaen - Éclairs Sur L'Au-Delà - Orchestre De L'Opéra Bastille, Myung-Whun Chung/Olivier Messiaen - Myung-Whun Chung - Bastille Opera Orchestra - Éclairs Sur L'Au-Delà... (Illuminations Of The Beyond) (1994) [FLAC]/03 Messiaen: Éclairs Sur L'Au-Delà - 3. L'Oiseau-Lyre Et La Ville-Fiancée.flac
Track gain : 1.73 dB
Peak : 0.954834
CRC32 hash (test run) : 2D589478
CRC32 hash : 2D589478
CRC32 hash (skip zero) : 954B7D92
AccurateRip signature : FDE5FB0F
->Accurately ripped! (confidence 2)
Statistics
Read error : 0
Jitter error (maybe fixed) : 0
Retry sector count : 0
Damaged sector count : 0
Track 04
Filename : /Users/admin/Music/tahw/Olivier Messiaen - Éclairs Sur L'Au-Delà - Orchestre De L'Opéra Bastille, Myung-Whun Chung/Olivier Messiaen - Myung-Whun Chung - Bastille Opera Orchestra - Éclairs Sur L'Au-Delà... (Illuminations Of The Beyond) (1994) [FLAC]/04 Messiaen: Éclairs Sur L'Au-Delà - 4. Les Élus Marqués Du Sceau.flac
Track gain : 5.51 dB
Peak : 0.310120
CRC32 hash (test run) : F99E8F3B
CRC32 hash : F99E8F3B
CRC32 hash (skip zero) : 17F42817
AccurateRip signature : EB23850E
->Accurately ripped! (confidence 2)
Statistics
Read error : 0
Jitter error (maybe fixed) : 0
Retry sector count : 0
Damaged sector count : 0
Track 05
Filename : /Users/admin/Music/tahw/Olivier Messiaen - Éclairs Sur L'Au-Delà - Orchestre De L'Opéra Bastille, Myung-Whun Chung/Olivier Messiaen - Myung-Whun Chung - Bastille Opera Orchestra - Éclairs Sur L'Au-Delà... (Illuminations Of The Beyond) (1994) [FLAC]/05 Messiaen: Éclairs Sur L'Au-Delà - 5. Demeurer Dans L'Amour....flac
Track gain : 16.94 dB
Peak : 0.130219
CRC32 hash (test run) : AE5E5426
CRC32 hash : AE5E5426
CRC32 hash (skip zero) : E8C3B471
AccurateRip signature : 1FEA1979
->Accurately ripped! (confidence 2)
Statistics
Read error : 0
Jitter error (maybe fixed) : 0
Retry sector count : 0
Damaged sector count : 0
Track 06
Filename : /Users/admin/Music/tahw/Olivier Messiaen - Éclairs Sur L'Au-Delà - Orchestre De L'Opéra Bastille, Myung-Whun Chung/Olivier Messiaen - Myung-Whun Chung - Bastille Opera Orchestra - Éclairs Sur L'Au-Delà... (Illuminations Of The Beyond) (1994) [FLAC]/06 Messiaen: Éclairs Sur L'Au-Delà - 6. Les Sept Anges Aux Sept Trompettes.flac
Track gain : -0.50 dB
Peak : 0.956024
CRC32 hash (test run) : 6085502A
CRC32 hash : 6085502A
CRC32 hash (skip zero) : D05E4902
AccurateRip signature : E8301CD0
->Accurately ripped! (confidence 2)
Statistics
Read error : 0
Jitter error (maybe fixed) : 0
Retry sector count : 0
Damaged sector count : 0
Track 07
Filename : /Users/admin/Music/tahw/Olivier Messiaen - Éclairs Sur L'Au-Delà - Orchestre De L'Opéra Bastille, Myung-Whun Chung/Olivier Messiaen - Myung-Whun Chung - Bastille Opera Orchestra - Éclairs Sur L'Au-Delà... (Illuminations Of The Beyond) (1994) [FLAC]/07 Messiaen: Éclairs Sur L'Au-Delà - 7. Et Dieu Essuiera Toute Larme De Leurs Yeux....flac
Track gain : 17.70 dB
Peak : 0.094269
CRC32 hash (test run) : EF0AE670
CRC32 hash : EF0AE670
CRC32 hash (skip zero) : 37B4F6F6
AccurateRip signature : 6F62DE13
->Accurately ripped! (confidence 2)
Statistics
Read error : 0
Jitter error (maybe fixed) : 0
Retry sector count : 0
Damaged sector count : 0
Track 08
Filename : /Users/admin/Music/tahw/Olivier Messiaen - Éclairs Sur L'Au-Delà - Orchestre De L'Opéra Bastille, Myung-Whun Chung/Olivier Messiaen - Myung-Whun Chung - Bastille Opera Orchestra - Éclairs Sur L'Au-Delà... (Illuminations Of The Beyond) (1994) [FLAC]/08 Messiaen: Éclairs Sur L'Au-Delà - 8. Les Étoiles Et La Gloire.flac
Track gain : 0.84 dB
Peak : 0.935669
CRC32 hash (test run) : 4113F11E
CRC32 hash : 4113F11E
CRC32 hash (skip zero) : A3D5CF35
AccurateRip signature : F1564EB2
->Accurately ripped! (confidence 2)
Statistics
Read error : 0
Jitter error (maybe fixed) : 0
Retry sector count : 0
Damaged sector count : 0
Track 09
Filename : /Users/admin/Music/tahw/Olivier Messiaen - Éclairs Sur L'Au-Delà - Orchestre De L'Opéra Bastille, Myung-Whun Chung/Olivier Messiaen - Myung-Whun Chung - Bastille Opera Orchestra - Éclairs Sur L'Au-Delà... (Illuminations Of The Beyond) (1994) [FLAC]/09 Messiaen: Éclairs Sur L'Au-Delà - 9. Plusieurs Oiseaux Des Arbres De Vie.flac
Track gain : 5.04 dB
Peak : 0.320068
CRC32 hash (test run) : 91A0D646
CRC32 hash : 91A0D646
CRC32 hash (skip zero) : AB3177F2
AccurateRip signature : 403085B0
->Accurately ripped! (confidence 2)
Statistics
Read error : 0
Jitter error (maybe fixed) : 0
Retry sector count : 0
Damaged sector count : 0
Track 10
Filename : /Users/admin/Music/tahw/Olivier Messiaen - Éclairs Sur L'Au-Delà - Orchestre De L'Opéra Bastille, Myung-Whun Chung/Olivier Messiaen - Myung-Whun Chung - Bastille Opera Orchestra - Éclairs Sur L'Au-Delà... (Illuminations Of The Beyond) (1994) [FLAC]/10 Messiaen: Éclairs Sur L'Au-Delà - 10. Le Chemin De L'Invisible.flac
Track gain : 0.78 dB
Peak : 0.999939
CRC32 hash (test run) : E8136723
CRC32 hash : E8136723
CRC32 hash (skip zero) : F6DC8389
AccurateRip signature : 595C381C
->Accurately ripped! (confidence 2)
Statistics
Read error : 0
Jitter error (maybe fixed) : 0
Retry sector count : 0
Damaged sector count : 0
Track 11
Filename : /Users/admin/Music/tahw/Olivier Messiaen - Éclairs Sur L'Au-Delà - Orchestre De L'Opéra Bastille, Myung-Whun Chung/Olivier Messiaen - Myung-Whun Chung - Bastille Opera Orchestra - Éclairs Sur L'Au-Delà... (Illuminations Of The Beyond) (1994) [FLAC]/11 Messiaen: Éclairs Sur L'Au-Delà - 11. Le Christ, Lumière Du Paradis.flac
Track gain : 11.76 dB
Peak : 0.163177
CRC32 hash (test run) : ED9602A4
CRC32 hash : ED9602A4
CRC32 hash (skip zero) : 1A31BFDE
AccurateRip signature : C32143CA
->Accurately ripped! (confidence 2)
Statistics
Read error : 0
Jitter error (maybe fixed) : 0
Retry sector count : 0
Damaged sector count : 0
No errors occurred
End of status report

Содержание индексной карты (.CUE)

TITLE "Éclairs sur l’au-delà..."
PERFORMER "Orchestre de l’Opéra Bastille · Myung-Whun Chung"
CATALOG 0028943992923
REM DATE "1994"
REM DISCID 930F380B
REM REPLAYGAIN_ALBUM_GAIN 2.28 dB
REM REPLAYGAIN_ALBUM_PEAK 0.999939
FILE "01. Apparition du Christ glorieux.flac" WAVE
TRACK 01 AUDIO
TITLE "Apparition du Christ glorieux"
PERFORMER "Orchestre de l’Opéra Bastille · Myung-Whun Chung"
ISRC DEF059330700
REM REPLAYGAIN_TRACK_GAIN 4.79 dB
REM REPLAYGAIN_TRACK_PEAK 0.543396
PREGAP 00:00:33
INDEX 01 00:00:00
FILE "02. La Constellation du Sagittaire.flac" WAVE
TRACK 02 AUDIO
TITLE "La Constellation du Sagittaire"
PERFORMER "Orchestre de l’Opéra Bastille · Myung-Whun Chung"
ISRC DEF059330700
REM REPLAYGAIN_TRACK_GAIN 5.69 dB
REM REPLAYGAIN_TRACK_PEAK 0.468903
INDEX 01 00:00:00
FILE "03. L’Oiseau-lyre et la Ville-fiancée.flac" WAVE
TRACK 03 AUDIO
TITLE "L’Oiseau-lyre et la Ville-fiancée"
PERFORMER "Orchestre de l’Opéra Bastille · Myung-Whun Chung"
ISRC DEF059330700
REM REPLAYGAIN_TRACK_GAIN 1.73 dB
REM REPLAYGAIN_TRACK_PEAK 0.954834
INDEX 01 00:00:00
FILE "04. Les Élus marqués du sceau.flac" WAVE
TRACK 04 AUDIO
TITLE "Les Élus marqués du sceau"
PERFORMER "Orchestre de l’Opéra Bastille · Myung-Whun Chung"
ISRC DEF059330700
REM REPLAYGAIN_TRACK_GAIN 5.51 dB
REM REPLAYGAIN_TRACK_PEAK 0.310120
INDEX 01 00:00:00
FILE "05. Demeurer dans l’Amour....flac" WAVE
TRACK 05 AUDIO
TITLE "Demeurer dans l’Amour..."
PERFORMER "Orchestre de l’Opéra Bastille · Myung-Whun Chung"
ISRC DEF059330700
REM REPLAYGAIN_TRACK_GAIN 16.94 dB
REM REPLAYGAIN_TRACK_PEAK 0.130219
INDEX 01 00:00:00
FILE "06. Les Sept Anges aux sept trompettes.flac" WAVE
TRACK 06 AUDIO
TITLE "Les Sept Anges aux sept trompettes"
PERFORMER "Orchestre de l’Opéra Bastille · Myung-Whun Chung"
ISRC DEF059330700
REM REPLAYGAIN_TRACK_GAIN -0.50 dB
REM REPLAYGAIN_TRACK_PEAK 0.956024
INDEX 01 00:00:00
FILE "07. Et Dieu essuiera tout larme de leurs yeux....flac" WAVE
TRACK 07 AUDIO
TITLE "Et Dieu essuiera tout larme de leurs yeux..."
PERFORMER "Orchestre de l’Opéra Bastille · Myung-Whun Chung"
ISRC DEF059330700
REM REPLAYGAIN_TRACK_GAIN 17.70 dB
REM REPLAYGAIN_TRACK_PEAK 0.094269
INDEX 01 00:00:00
FILE "08. Les Étoiles et la Gloire.flac" WAVE
TRACK 08 AUDIO
TITLE "Les Étoiles et la Gloire"
PERFORMER "Orchestre de l’Opéra Bastille · Myung-Whun Chung"
ISRC DEF059330700
REM REPLAYGAIN_TRACK_GAIN 0.84 dB
REM REPLAYGAIN_TRACK_PEAK 0.935669
INDEX 01 00:00:00
FILE "09. Plusieurs oiseaux des arbres de Vie.flac" WAVE
TRACK 09 AUDIO
TITLE "Plusieurs oiseaux des arbres de Vie"
PERFORMER "Orchestre de l’Opéra Bastille · Myung-Whun Chung"
ISRC DEF059330700
REM REPLAYGAIN_TRACK_GAIN 5.04 dB
REM REPLAYGAIN_TRACK_PEAK 0.320068
INDEX 01 00:00:00
FILE "10. Le Chemin de l’Invisible.flac" WAVE
TRACK 10 AUDIO
TITLE "Le Chemin de l’Invisible"
PERFORMER "Orchestre de l’Opéra Bastille · Myung-Whun Chung"
ISRC DEF059330700
REM REPLAYGAIN_TRACK_GAIN 0.78 dB
REM REPLAYGAIN_TRACK_PEAK 0.999939
INDEX 01 00:00:00
FILE "11. Le Christ, lumière du Paradis.flac" WAVE
TRACK 11 AUDIO
TITLE "Le Christ, lumière du Paradis"
PERFORMER "Orchestre de l’Opéra Bastille · Myung-Whun Chung"
ISRC DEF059330700
REM REPLAYGAIN_TRACK_GAIN 11.76 dB
REM REPLAYGAIN_TRACK_PEAK 0.163177
INDEX 01 00:00:00



Показать сообщения:    

Текущее время: 20-Янв 14:58

Часовой пояс: UTC + 3


Вы не можете начинать темы
Вы не можете отвечать на сообщения
Вы не можете редактировать свои сообщения
Вы не можете удалять свои сообщения
Вы не можете голосовать в опросах
Вы не можете прикреплять файлы к сообщениям
Вы не можете скачивать файлы