Уроки гармонии / Уроки Аслана / Harmony Lessons (Эмир Байгазин / Emir Baigazin) [2013, Казахстан, Германия, Франция, драма, DVDRip-AVC] Sub Rus + Original Kaz


Статистика раздачи [Обновить пиров]
Размер:  1.95 GB   |    Зарегистрирован:  8 месяцев 19 дней   |    Скачан:  0 раз

Полного источника не было: Никогда

 
   
 
 
 

[Цитировать]

Уроки гармонии / Уроки Аслана / Harmony Lessons
Страна: Казахстан, Германия
Жанр: Драма
Год выпуска: 2013
Продолжительность: 01:54:31
Перевод: Субтитры
Cубтитры: русские
Оригинальная аудиодорожка: казахский
Режиссер: Эмир Байгазин / Emir Baigazin
В ролях: Тимур Айдарбеков, Аслан Анарбаев, Мухтар Андасов, Анелия Адибекова, Омар Адилов, Адлет Анарбеков, Даулет Анарбеков, Нурсултан Нурбергенов, Нурдаулет Оразымбетов, Ерасыл Нуржакып
Описание: Фильм об одиноком школьнике Аслане, который подвергается травле со стороны хулиганов из школьной банды. Устав терпеть, он готовит кровавую месть их лидеру, Болату.
Доп. информация: Релиз сайта blizzardkid. Отдельная благодарность Minhers76 за организацию перевода.
Сэмпл: https://yadi.sk/i/XSXknQrxhmkop
Качество видео: DVDRip-AVC
Формат видео: MKV
Видео: AVC, 720x552@1050x552, 25.000 fps, 1989 kbps, 0.200 bit/pixel
Аудио: AC3, 48.0 kHz, 6 ch, 448 kbps, CBR
Формат субтитров: softsub (SRT)

MediaInfo

General
Unique ID : 191238997817411039806554357820044857395 (0x8FDF4A8EE8A92FBC86E751AF2073D033)
Complete name : C:\Users\Саша\Desktop\Harmony Lessons - Uroki Garmonii (2013)\Harmony Lessons - Uroki Garmonii (2013).mkv
Format : Matroska
Format version : Version 4 / Version 2
File size : 1.95 GiB
Duration : 1h 54mn
Overall bit rate mode : Variable
Overall bit rate : 2 438 Kbps
Encoded date : UTC 2015-06-18 09:38:18
Writing application : mkvmerge v7.9.0 ('Birds') 32bit
Writing library : libebml v1.3.1 + libmatroska v1.4.2
DURATION : 01:54:31.936000000
NUMBER_OF_FRAMES : 214748
NUMBER_OF_BYTES : 384828416
_STATISTICS_WRITING_APP : mkvmerge v7.9.0 ('Birds') 32bit
_STATISTICS_WRITING_DATE_UTC : 2015-06-18 09:38:18
_STATISTICS_TAGS : BPS DURATION NUMBER_OF_FRAMES NUMBER_OF_BYTES
Video
ID : 1
Format : AVC
Format/Info : Advanced Video Codec
Format profile : High@L4.1
Format settings, CABAC : Yes
Format settings, ReFrames : 3 frames
Codec ID : V_MPEG4/ISO/AVC
Duration : 1h 54mn
Bit rate mode : Variable
Bit rate : 1 989 Kbps
Maximum bit rate : 14.0 Mbps
Width : 720 pixels
Height : 552 pixels
Display aspect ratio : 1.902
Original display aspect ratio : 1.903
Frame rate mode : Constant
Frame rate : 25.000 fps
Color space : YUV
Chroma subsampling : 4:2:0
Bit depth : 8 bits
Scan type : Progressive
Bits/(Pixel*Frame) : 0.200
Stream size : 1.55 GiB (80%)
Writing library : x264 core 146 r2538 121396c
Encoding settings : cabac=1 / ref=4 / deblock=1:-1:-1 / analyse=0x3:0x113 / me=hex / subme=7 / psy=1 / psy_rd=1.00:0.15 / mixed_ref=1 / me_range=16 / chroma_me=1 / trellis=1 / 8x8dct=1 / cqm=0 / deadzone=21,11 / fast_pskip=1 / chroma_qp_offset=-3 / threads=6 / lookahead_threads=1 / sliced_threads=0 / slices=4 / nr=0 / decimate=1 / interlaced=0 / bluray_compat=1 / constrained_intra=0 / bframes=3 / b_pyramid=1 / b_adapt=1 / b_bias=0 / direct=1 / weightb=1 / open_gop=1 / weightp=0 / keyint=24 / keyint_min=1 / scenecut=40 / intra_refresh=0 / rc_lookahead=25 / rc=2pass / mbtree=1 / bitrate=1989 / ratetol=1.0 / qcomp=0.60 / qpmin=0 / qpmax=69 / qpstep=4 / cplxblur=20.0 / qblur=0.5 / vbv_maxrate=14000 / vbv_bufsize=14500 / nal_hrd=vbr / filler=0 / ip_ratio=1.40 / aq=1:1.00
Default : Yes
Forced : No
Color primaries : BT.709
Transfer characteristics : BT.709
Matrix coefficients : BT.709
Audio
ID : 2
Format : AC-3
Format/Info : Audio Coding 3
Mode extension : CM (complete main)
Format settings, Endianness : Big
Codec ID : A_AC3
Duration : 1h 54mn
Bit rate mode : Constant
Bit rate : 448 Kbps
Channel(s) : 6 channels
Channel positions : Front: L C R, Side: L R, LFE
Sampling rate : 48.0 KHz
Bit depth : 16 bits
Compression mode : Lossy
Stream size : 367 MiB (18%)
Title : AC3 Kazakh
Language : Kazakh
Default : Yes
Forced : No

Скриншоты

Фрагмент субтитров

1
00:01:55,570 --> 00:02:00,030
- УРОКИ ГАРМОНИИ -
2
00:06:31,080 --> 00:06:38,110
Ребята, тема сегодняшнего урока "Энергия".
Она обозначается латинской буквой "Е".
3
00:06:38,640 --> 00:06:44,840
Энергия измеряется в джоулях.
Единица измерения получила своё название
от имени английского физика Джеймса Джоуля.
4
00:06:45,000 --> 00:06:49,700
Энергия - это общая количественная мера
различных форм движения материи.
5
00:06:49,950 --> 00:06:56,680
Мы можем классифицировать энергию,
как тепловую, механическую и электрическую.
6
00:06:56,950 --> 00:06:59,870
В человеческой жизни получение
энергии обеспечивается деньгами.
7
00:07:00,100 --> 00:07:02,590
Мы все живем благодаря энергии.
8
00:07:02,710 --> 00:07:06,930
Получаем энергию из пищи.
А что для этого нужно? Деньги.
9
00:07:07,050 --> 00:07:08,460
За деньги мы покупаем еду.
10
00:07:08,730 --> 00:07:11,680
То есть необходимую нам энергию получаем так.
11
00:07:11,940 --> 00:07:19,270
Деньги, пища и энергия - три неразрывно
связанных субъединицы основы нашей жизни.
[teatrix.ru].t21716.torrent 
Торрент: Зарегистрирован [ 2016-03-20 12:55 ] · D5356BD0CC61C85A2C64456BA5DA269D43DC9E01

Скачать .torrent

Скачать

20 KB

Статус: проверено
Скачан: 0 раз
Размер: 1.95 GB
terms.php



Быстрый ответ

Имя:

      
Для отправки сообщений необходимо включить JavaScript
Показать сообщения:    

Текущее время: 08-Дек 14:51

Часовой пояс: UTC + 3


Вы можете начинать темы
Вы можете отвечать на сообщения
Вы не можете редактировать свои сообщения
Вы не можете удалять свои сообщения
Вы не можете голосовать в опросах
Вы не можете прикреплять файлы к сообщениям
Вы можете скачивать файлы