[TR24][OF] J.S. Bach: The English Suites (Englische Suiten), BWV 806-811 - Richard Egarr - 2012 (Classical / Harpsichord)


Статистика раздачи [Обновить пиров]
Размер:  2.79 GB   |    Зарегистрирован:  8 месяцев 20 дней   |    Скачан:  0 раз

Полного источника не было: Никогда

 
   
 
 
 

[Цитировать]

J.S. Bach
The English Suites, BWV 806-811
Richard Egarr
-Год издания: 2012 | Жанр: Classical
Издатель: harmonia mundi usa | Продолжительность: 02:21:19
Наличие сканов: Sleeve, Digital Booklet- -Контейнер: FLAC (*.flac) | Тип рипа: tracks
Разрядность: 24bit / 88.2kHz | Количество каналов: 2.0
-Треклист
Johann Sebastian Bach (1685-1750)
The English Suites Nos. 1-6, BWV 806-811
CD 1
Suite No.1 in A Major, BWV 806
01. I. Prélude (2:30)
02. II. Allemande (5:19)
03. III. Courante I (1:43)
04. IV. Courante II avec deux Doubles; Double I; Double II (4:16)
05. V. Sarabande (3:40)
06. VI. Bourrée I (2:07)
07. VII. Bourrée II (2:45)
08. VIII. Gigue (3:01)
Suite No.2 in A Minor, BWV 807
09. I. Prélude (5:10)
10. II. Allemande (3:54)
11. III. Courante (2:02)
12. IV. Sarabande; Les agréments de la même Sarabande (4:17)
13. V. Bourrée I alternativement (2:27)
14. VI. Bourrée II (2:27)
15. VII. Gigue (2:49)
Suite No.3 in G Minor, BWV 808
16. I. Prélude (3:32)
17. II. Allemande (3:44)
18. III. Courante (2:44)
19. IV. Sarabande; Les agréments de la même Sarabande (4:31)
20. V. Gavotte I alternativement (1:34)
21. VI. Gavotte II ou la Musette (1:39)
22. VII. Gigue (3:25)
CD 2
Suite No.4 in F Major, BWV 809
01. I. Prélude (4:46)
02. II. Allemande (3:52)
03. III. Courante (1:52)
04. IV. Sarabande (2:52)
05. V. Menuet I (1:27)
06. VI. Menuet II (2:25)
07. VII. Gigue (4:05)
Suite No.5 in E Minor, BWV 810
08. I. Prélude (5:27)
09. II. Allemande (4:23)
10. III. Courante (2:28)
11. IV. Sarabande (2:57)
12. V. Passepied I en Rondeau (1:29)
13. VI. Passepied II (1:27)
14. VII. Gigue (3:36)
Suite No.6 in D Minor, BWV 811
15. I. Prélude (9:16)
16. II. Allemande (4:14)
17. III. Courante (2:35)
18. IV. Sarabande; Double (4:20)
19. V. Gavotte I (1:47)
20. VI. Gavotte II (2:21)
21. VII. Gigue (4:03)

О релизе


Whatever the elusive truth may be regarding the ‘Englishness' of these 'Six Suittes avec leurs Preludes', there is no denying the imagination of the keyboard writing. Each Suite is headed by a Prelude of substantial proportions, followed by wonderfully varied dance movements, all perfectly suited to showcase the joyful brilliance of Richard Egarr's harpsichord skill.
"as a player I find personally the most pleasure in the earlier keyboard collections. The Toccatas, Well-Tempered Clavier’s Book 1, Brandenburg 5 and the so-called ‘English’ Suites seem to delight in purely physical keyboard pleasure and imagination that is often absent from the later works...This is a true cycle of pieces – one of Bach’s first and certainly one of his best. The care with which Bach has planned their path, and the skill in creating a musical journey to a most fearful place is astonishing. The way to redemption and salvation after this journey is perhaps shown by the key sequence of the Suites: A – a – g – F – e – d. These six notes clearly describe the Chorale tune “Jesu, meine Freude”. I recorded the Suites in order. I certainly felt that it helped me make the musical path clearer. My trusty Katzman harpsichord was a glorious partner, its quill plectra wonderfully flexible and responsive in giving life and colour to this most imaginative music." Richard Egarr
Personnel:
Richard Egarr, Harpsichord
Harpsichord by Joel Katzman, Amsterdam, 1991 (after Ruckers, Antwerp, 1638)
Pitch: a’ = 409 • Temperament: Egarr, based on 18th-century models
Recorded: September 2011 at Potton Hall, Suffolk, England

ОтчётыДинамический диапазон

CD 1
foobar2000 1.3.8 / Dynamic Range Meter 1.1.1
log date: 2015-07-10 17:45:04
--------------------------------------------------------------------------------
Analyzed: Richard Egarr / Bach: The English Suites, BWV 806-811
--------------------------------------------------------------------------------
DR Peak RMS Duration Track
--------------------------------------------------------------------------------
DR12 -10.60 dB -25.31 dB 2:30 01-Suite No.1 in A Major, BWV 806: I. Prélude
DR12 -11.42 dB -27.39 dB 5:19 02-Suite No.1 in A Major, BWV 806: II. Allemande
DR12 -10.31 dB -23.81 dB 1:43 03-Suite No.1 in A Major, BWV 806: III. Courante I
DR12 -8.85 dB -24.00 dB 4:16 04-Suite No.1 in A Major, BWV 806: IV. Courante II avec deux Doubles; Double I; Double II
DR13 -9.73 dB -25.00 dB 3:40 05-Suite No.1 in A Major, BWV 806: V. Sarabande
DR12 -9.27 dB -22.66 dB 2:07 06-Suite No.1 in A Major, BWV 806: VI. Bourrée I
DR12 -9.23 dB -24.78 dB 2:45 07-Suite No.1 in A Major, BWV 806: VII. Bourrée II
DR11 -9.45 dB -23.44 dB 3:01 08-Suite No.1 In A Major, Bwv 806: VIII. Gigue
DR12 -7.90 dB -22.56 dB 5:10 09-Suite No.2 in A Minor, BWV 807: I. Prélude
DR11 -12.66 dB -26.75 dB 3:54 10-Suite No.2 in A Minor, BWV 807: II. Allemande
DR11 -9.64 dB -23.27 dB 2:02 11-Suite No.2 in A Minor, BWV 807: III. Courante
DR13 -8.77 dB -24.95 dB 4:17 12-Suite No.2 in A Minor, BWV 807: IV. Sarabande; Les agréments de la même Sarabande
DR11 -9.91 dB -22.68 dB 2:27 13-Suite No.2 in A Minor, BWV 807: V. Bourrée I alternativement
DR11 -9.85 dB -23.10 dB 2:27 14-Suite No.2 in A Minor, BWV 807: VI. Bourrée II
DR11 -8.02 dB -22.43 dB 2:49 15-Suite No.2 in A Minor, BWV 807: VII. Gigue
DR12 -5.97 dB -22.09 dB 3:32 16-Suite No.3 in G Minor, BWV 808: I. Prélude
DR12 -10.87 dB -26.88 dB 3:44 17-Suite No.3 in G Minor, BWV 808: II. Allemande
DR12 -9.63 dB -24.13 dB 2:44 18-Suite No.3 in G Minor, BWV 808: III. Courante
DR13 -10.33 dB -26.30 dB 4:31 19-Suite No.3 in G Minor, BWV 808: IV. Sarabande; Les agréments de la même Sarabande
DR12 -9.18 dB -23.57 dB 1:34 20-Suite No.3 in G Minor, BWV 808: V. Gavotte I alternativement
DR12 -9.44 dB -25.56 dB 1:39 21-Suite No.3 in G Minor, BWV 808: VI. Gavotte II ou la Musette
DR12 -9.51 dB -23.41 dB 3:25 22-Suite No.3 in G Minor, BWV 808: VII. Gigue
--------------------------------------------------------------------------------
Number of tracks: 22
Official DR value: DR12
Samplerate: 88200 Hz
Channels: 2
Bits per sample: 24
Bitrate: 2866 kbps
Codec: FLAC
================================================================================
CD 2
foobar2000 1.3.8 / Dynamic Range Meter 1.1.1
log date: 2015-07-10 17:46:48
--------------------------------------------------------------------------------
Analyzed: Richard Egarr / Bach: The English Suites, BWV 806-811
--------------------------------------------------------------------------------
DR Peak RMS Duration Track
--------------------------------------------------------------------------------
DR13 -7.78 dB -23.22 dB 4:46 01-Suite No.4 in F Major, BWV 809: I. Prélude
DR12 -11.83 dB -26.64 dB 3:52 02-Suite No.4 in F Major, BWV 809: II. Allemande
DR12 -9.94 dB -24.03 dB 1:52 03-Suite No.4 in F Major, BWV 809: III. Courante
DR13 -9.98 dB -25.30 dB 2:52 04-Suite No.4 in F Major, BWV 809: IV. Sarabande
DR11 -12.30 dB -25.98 dB 1:27 05-Suite No.4 in F Major, BWV 809: V. Menuet I
DR12 -12.78 dB -26.24 dB 2:25 06-Suite No.4 in F Major, BWV 809: VI. Menuet II
DR12 -8.27 dB -22.42 dB 4:05 07-Suite No.4 in F Major, BWV 809: VII. Gigue
DR12 -7.43 dB -22.18 dB 5:27 08-Suite No.5 in E Minor, BWV 810: I. Prélude
DR11 -12.44 dB -27.35 dB 4:23 09-Suite No.5 in E Minor, BWV 810: II. Allemande
DR12 -9.95 dB -24.20 dB 2:28 10-Suite No.5 in E Minor, BWV 810: III. Courante
DR12 -9.44 dB -25.18 dB 2:57 11-Suite No.5 in E Minor, BWV 810: IV. Sarabande
DR11 -13.25 dB -26.17 dB 1:29 12-Suite No.5 in E Minor, BWV 810: V. Passepied I en Rondeau
DR11 -14.31 dB -28.10 dB 1:27 13-Suite No.5 in E Minor, BWV 810: VI. Passepied II
DR13 -8.08 dB -23.11 dB 3:36 14-Suite No.5 in E Minor, BWV 810: VII. Gigue
DR13 -7.74 dB -22.93 dB 9:16 15-Suite No.6 in D Minor, BWV 811: I. Prélude
DR12 -11.03 dB -27.10 dB 4:14 16-Suite No.6 in D Minor, BWV 811: II. Allemande
DR12 -9.76 dB -23.76 dB 2:35 17-Suite No.6 in D Minor, BWV 811: III. Courante
DR13 -10.20 dB -26.05 dB 4:20 18-Suite No.6 in D Minor, BWV 811: IV. Sarabande; Double
DR12 -11.47 dB -25.62 dB 1:47 19-Suite No.6 in D Minor, BWV 811: V. Gavotte I
DR12 -11.68 dB -27.57 dB 2:21 20-Suite No.6 in D Minor, BWV 811: VI. Gavotte II
DR12 -7.12 dB -21.95 dB 4:03 21-Suite No.6 in D Minor, BWV 811: VII. Gigue
--------------------------------------------------------------------------------
Number of tracks: 21
Official DR value: DR12
Samplerate: 88200 Hz
Channels: 2
Bits per sample: 24
Bitrate: 2911 kbps
Codec: FLAC
================================================================================

Скриншот спектра частот

Доп. информация

При скачивании, если необходимо, переименуйте папку, в которой будет находиться альбомБольшая просьба к скачавшим поддерживать раздачу! Помогайте другим, ведь вам тоже может понадобиться помощь!Не забываем говорить "Спасибо"!Комментарии приветствуются!
[teatrix.ru].t21717.torrent 
Торрент: Зарегистрирован [ 2016-03-20 12:55 ] · 0E8D2F9D682336086D520D3616166FDC86754470

Скачать .torrent

Скачать

19 KB

Статус: проверено
Скачан: 0 раз
Размер: 2.79 GB
terms.php



Быстрый ответ

Имя:

      
Для отправки сообщений необходимо включить JavaScript
Показать сообщения:    

Текущее время: 09-Дек 22:27

Часовой пояс: UTC + 3


Вы можете начинать темы
Вы можете отвечать на сообщения
Вы не можете редактировать свои сообщения
Вы не можете удалять свои сообщения
Вы не можете голосовать в опросах
Вы не можете прикреплять файлы к сообщениям
Вы можете скачивать файлы