[TR24][OF] William Lawes: The Royal Consort - Phantasm, Laurence Dreyfus - 2015 (Classical)


Статистика раздачи [Обновить пиров]
Размер:  2.55 GB   |    Зарегистрирован:  9 месяцев 28 дней   |    Скачан:  0 раз

Полного источника не было: Никогда

 
   
 
 
 

[Цитировать]

William Lawes
The Royal Consort
Phantasm · Laurence Dreyfus
-Год издания: 2015 | Жанр: Classical
Издатель: LINN Records | Продолжительность: 02:24:22
Наличие сканов: Sleeve, Digital Booklet- -Контейнер: FLAC (*.flac) | Тип рипа: tracks
Разрядность: 24bit / 96kHz | Количество каналов: 2.0
-Треклист
William Lawes (1602-1645)
Royal Consort Sett No. 1 in d
01.I. Aire (1:38)
02. II. Alman (1:46)
03. III. Corant (1:42)
04. IV. Corant (0:53)
05. V. Saraband (0:47)
Royal Consort Sett No. 4 in D
06. I. Paven (4:54)
07. II. Aire (1:21)
08. III. Aire (2:01)
09. IV. Aire (2:02)
10. V. Corant (1:16)
11. VI. Corant (1:32)
12. VII. Saraband (0:34)
Royal Consort Sett No. 3 in d
13. I. Aire (2:16)
14. II. Aire (1:31)
15. III. Corant (1:19)
16. IV. Alman (1:20)
17. V. Corant (1:24)
18. VI. Saraband (0:48)
Royal Consort Sett No. 5 in D
19. I. Aire (3:30)
20. II. Aire (1:42)
21. III. Alman (1:06)
22. IV. Corant (1:52)
23. V. Corant (1:20)
24. IV. Morriss (0:39)
25. VII. Saraband (0:55)
Royal Consort Sett No. 8 in C
26. I. Aire (2:18)
27. II. Alman (1:27)
28. III. Corant (2:08)
29. IV. Corant (0:44)
30. V. Saraband (0:35)
Royal Consort Sett No. 9 in F
31. I. Pavan (6:33)
32. II. Aire (1:43)
33. III. Alman (1:42)
34. IV. Corant (1:08)
35. V. Alman (1:44)
36. VI. Corant (1:38)
37. VII. Saraband (0:31)
IV Sett a5 in F 'to the Organ'
38. I. Fantazy (2:42)
39. II. Pavan (6:10)
40. III. Aire (2:13)
Royal Consort Sett No. 2 in d
41. I. Pavan (5:45)
42. II. Aire (1:27)
43. III. Aire (1:30)
44. IV. Galliard (1:17)
45. V. Corant (1:28)
46. VI. Saraband (0:53)
Royal Consort Sett No. 6 in D
47. I. Aire (1:53)
48. II. Alman (1:25)
49. III. Corant (2:09)
50. IV. Morriss (0:49)
Royal Consort Sett No. 7 in a
51. I. Aire (2:24)
52. II. Alman (1:48)
53. III. Alman (1:09)
54. IV. Aire (1:21)
55. V. Corant (1:41)
56. VI. Saraband (0:33)
Royal Consort Sett No. 10 in B flat
57. I. Paven (3:48)
58. II. Alman (1:59)
59. III. Corant (1:33)
60. IV. Alman (1:55)
61. V. Corant (1:04)
62. VI. Saraband (0:39)
Sett a4 in d
63. I. Paven (6:07)
64. II. Alman (2:12)
65. III. Saraband (0:39)
X Sett a6 in c 'to the Organ'
66. I. Fantazy (3:09)
67. II. Fantazy (3:26)
68. III. Inomine (4:04)
69. IV. Aire (2:37)
VII Sett a6 in C 'to the Organ'
70. I. Fantazy (3:50)
71. II. Fantazy (3:04)
72. III. Aire (3:18)

О релизе


Described as ‘one of the greatest collections of ensemble dance music ever composed', Lawes' Royal Consort is full of astounding moments of striking musical invention. Guest musicians Elizabeth Kenny on theorbo, Emily Ashton on tenor viol and organist Daniel Hyde join Phantasm to honour the celebrated English Renaissance composer. This sublime collection boasts a range and depth of expression, which excites both mind and body through Lawes' startlingly individual pieces.
This recording is the first complete recording of Lawes' version of the Royal Consorts for four viols and theorbo. Phantasm, under the direction of Laurence Dreyfus, presents a passionate and insightful look into this adventurous music. The result is a rich and warm recording of technical brilliance that takes the listener deep into the harmonically rich world of Lawes.
Phantasm's previous recording of Lawes, Consorts to the Organ, was both a Gramophone Awards finalist and a BBC Music Magazine Award nominee in 2013.
William Lawes's 10 Royal Consort sets (or suites) were probably composed for the Caroline court during the 1630s. Unswerving royalist loyalty cost him his life at the Siege of Chester in 1645, but not before he had made six-part rearrangements for two violins, bass viols and theorbos. This later version has an eminent discography but Phantasm instead present the first complete recording of the original pieces for four-part viol consort and theorbo. Performer-scholar Laurence Dreyfus begins his 14-page booklet essay in bold fashion: ‘One mustn't mince words. To put it frankly, this is one of the greatest collections of ensemble dance music ever composed.' He argues that Lawes's sets are on a par with Bach's Orchestral Suites and Rameau's ballet music but criticises that the later expanded versions ‘offer a clear case of how artists can spoil their work by an excess of fussing'.
Phantasm's playing brims with imaginative fantasy and dance-like momentum, although from time to time Lawes's unpredictable liberties with irregular phrase lengths would not have suited actual dancers (eg an Aire and Corant at the core of Set No 7). Every shift in imitative contrapuntal detail, rhythmical emphasis and melodic direction serves a conversational discourse between the pair of treble viols (Dreyfus and Emilia Benjamin) and the tenor and bass viols (Jonathan Manson, Mikko Perkola and Markku Luolajan-Mikkola); Elizabeth Kenny's theorbo continuo realisations are a model of tasteful clarity. Concise individual pieces often display rare sophistication, such as the seemingly floating Paven that begins No 9 and a song-like Galliard in No 2. A vividly accentuated ‘Morriss' folk dance follows hot on the heels of an elegant Corant (No 6) without any hint of formulaic articulation. Strong doses of Jacobean melancholy are abundant in a few longer pieces such as the Paven in D minor that starts No 2; this is one of several pavans that quotes from Dowland's Lacrimae but the inclusion of an extra short set for four-part viols dating from earlier in Lawes's career suggests that Dowland's influence cast a subtler shadow later on. A pleasing broadening of textures is injected into this beguiling survey by the additional tenor violist Emily Ashton and organist Daniel Hyde in some denser six-part sets that could not be squeezed on to Phantasm's 2012 recording of Lawes's Consorts to the Organ (2/13). --David Vickers, Gramophone
The viol music of William Lawes (1602-1645) is like nothing else: weird phrase lengths, irreverent weightings and rogue, sumptuous harmonies that will make you gasp out loud every time. Sometimes he seems to repeat a snatch of melody simply because it's too gorgeous not to, which must have caused havoc for anyone actually trying to dance to his music. The Royal Consort comprises 10 sets (or "setts" in the seventeenth-century lexicon) composed for the court of Charles I, and recorded here for the first time in their complete original versions for four viols and theorbo. In his sleeve notes, treble viol player and Phantasm director Laurence Dreyfus makes the point that "Lawes composes his parts as if the performing musicians are themselves dancing". It's a brilliant starting point, and the Phantasm players really run with it: twist after turn of lapping, pliant lines and spirited counterpoint, all done with a real sense of swing. The ensemble sound is luxuriantly rich, powered by Elizabeth Kenny's feisty theorbo strumming. --Kate Molleson, The Guardian
Personnel:
Phantasm:
Laurence Dreyfus - treble viol and director
Emilia Benjamin - treble viol
Jonathan Manson - tenor viol
Mikko Perkola - tenor viol (tracks 38-40) and bass viol (tracks 66-72)
Markku Luolajan-Mikkola - bass viol
with
Elizabeth Kenny - theorbo (tracks 1-37 and 41-65)
Daniel Hyde - organ (tracks 38-40 and 66-72)
Emily Ashton - tenor viol (tracks 66-72)
Recorded: September 2014, Chapel of Magdalen College, Oxford, United Kingdom

ОтчётыДинамический диапазон

foobar2000 1.3.8 / Dynamic Range Meter 1.1.1
log date: 2015-07-11 14:31:24
--------------------------------------------------------------------------------
Analyzed: Phantasm, Laurence Dreyfus / Lawes: The Royal Consort
--------------------------------------------------------------------------------
DR Peak RMS Duration Track
--------------------------------------------------------------------------------
DR11 -4.40 dB -19.15 dB 1:38 01-Royal Consort Sett No. 1 in d – I. Aire
DR12 -2.76 dB -18.65 dB 1:46 02-Royal Consort Sett No. 1 in d – II. Alman
DR11 -5.35 dB -19.21 dB 1:42 03-Royal Consort Sett No. 1 in d – III. Corant
DR11 -4.64 dB -17.89 dB 0:53 04-Royal Consort Sett No. 1 in d – IV. Corant
DR12 -3.57 dB -19.88 dB 0:47 05-Royal Consort Sett No. 1 in d – V. Saraband
DR12 -1.85 dB -18.51 dB 4:54 06-Royal Consort Sett No. 4 in D – I. Paven
DR11 -4.83 dB -18.77 dB 1:21 07-Royal Consort Sett No. 4 in D – II. Aire
DR11 -3.09 dB -17.95 dB 2:01 08-Royal Consort Sett No. 4 in D – III. Aire
DR11 -4.11 dB -18.60 dB 2:02 09-Royal Consort Sett No. 4 in D – IV. Aire
DR11 -3.16 dB -17.83 dB 1:16 10-Royal Consort Sett No. 4 in D – V. Corant
DR10 -5.01 dB -20.25 dB 1:32 11-Royal Consort Sett No. 4 in D – VI. Corant
DR11 -3.72 dB -19.51 dB 0:34 12-Royal Consort Sett No. 4 in D – VII. Saraband
DR12 -3.21 dB -18.38 dB 2:16 13-Royal Consort Sett No. 3 in d – I. Aire
DR10 -5.46 dB -18.89 dB 1:31 14-Royal Consort Sett No. 3 in d – II. Aire
DR12 -4.15 dB -19.67 dB 1:19 15-Royal Consort Sett No. 3 in d – III. Corant
DR11 -4.40 dB -19.06 dB 1:20 16-Royal Consort Sett No. 3 in d – IV. Alman
DR10 -5.25 dB -20.33 dB 1:24 17-Royal Consort Sett No. 3 in d – V. Corant
DR11 -4.01 dB -19.22 dB 0:48 18-Royal Consort Sett No. 3 in d – VI. Saraband
DR12 -2.14 dB -20.34 dB 3:30 19-Royal Consort Sett No. 5 in D – I. Aire
DR11 -3.66 dB -18.29 dB 1:42 20-Royal Consort Sett No. 5 in D – II. Aire
DR12 -1.76 dB -18.66 dB 1:06 21-Royal Consort Sett No. 5 in D – III. Alman
DR11 -4.86 dB -19.92 dB 1:52 22-Royal Consort Sett No. 5 in D – IV. Corant
DR10 -4.21 dB -18.56 dB 1:20 23-Royal Consort Sett No. 5 in D – V. Corant
DR11 -2.37 dB -16.81 dB 0:39 24-Royal Consort Sett No. 5 in D – IV. Morriss
DR12 -5.74 dB -20.00 dB 0:55 25-Royal Consort Sett No. 5 in D – VII. Saraband
DR13 -3.10 dB -18.95 dB 2:18 26-Royal Consort Sett No. 8 in C – I. Aire
DR11 -4.47 dB -18.43 dB 1:27 27-Royal Consort Sett No. 8 in C – II. Alman
DR11 -4.53 dB -19.92 dB 2:08 28-Royal Consort Sett No. 8 in C – III. Corant
DR11 -4.42 dB -18.82 dB 0:44 29-Royal Consort Sett No. 8 in C – IV. Corant
DR11 -6.06 dB -20.52 dB 0:35 30-Royal Consort Sett No. 8 in C – V. Saraband
DR12 -4.34 dB -20.15 dB 6:33 31-Royal Consort Sett No. 9 in F – I. Pavan
DR11 -3.83 dB -18.36 dB 1:43 32-Royal Consort Sett No. 9 in F – II. Aire
DR12 -3.06 dB -18.57 dB 1:42 33-Royal Consort Sett No. 9 in F – III. Alman
DR11 -4.52 dB -18.67 dB 1:08 34-Royal Consort Sett No. 9 in F – IV. Corant
DR12 -3.09 dB -18.92 dB 1:44 35-Royal Consort Sett No. 9 in F – V. Alman
DR12 -3.37 dB -19.40 dB 1:38 36-Royal Consort Sett No. 9 in F – VI. Corant
DR11 -4.27 dB -17.82 dB 0:31 37-Royal Consort Sett No. 9 in F – VII. Saraband
DR10 -1.63 dB -16.96 dB 2:42 38-IV Sett a5 in F 'to the Organ' – I. Fantazy
DR11 -2.00 dB -17.68 dB 6:10 39-IV Sett a5 in F 'to the Organ' – II. Pavan
DR11 -3.46 dB -16.39 dB 2:13 40-IV Sett a5 in F 'to the Organ' – III. Aire
DR12 -1.96 dB -20.02 dB 5:45 41-Royal Consort Sett No. 2 in d – I. Pavan
DR11 -3.52 dB -17.90 dB 1:27 42-Royal Consort Sett No. 2 in d – II. Aire
DR12 -3.82 dB -18.97 dB 1:30 43-Royal Consort Sett No. 2 in d – III. Aire
DR11 -4.44 dB -18.79 dB 1:17 44-Royal Consort Sett No. 2 in d – IV. Galliard
DR11 -4.65 dB -18.76 dB 1:28 45-Royal Consort Sett No. 2 in d – V. Corant
DR11 -2.99 dB -18.17 dB 0:53 46-Royal Consort Sett No. 2 in d – VI. Saraband
DR12 -0.91 dB -17.43 dB 1:53 47-Royal Consort Sett No. 6 in D – I. Aire
DR12 -1.40 dB -16.87 dB 1:25 48-Royal Consort Sett No. 6 in D – II. Alman
DR12 -0.68 dB -18.64 dB 2:09 49-Royal Consort Sett No. 6 in D – III. Corant
DR11 -1.69 dB -15.83 dB 0:49 50-Royal Consort Sett No. 6 in D – IV. Morriss
DR11 -1.83 dB -17.67 dB 2:24 51-Royal Consort Sett No. 7 in a – I. Aire
DR11 -4.37 dB -17.71 dB 1:48 52-Royal Consort Sett No. 7 in a – II. Alman
DR11 -2.17 dB -17.00 dB 1:09 53-Royal Consort Sett No. 7 in a – III. Alman
DR12 -2.21 dB -17.95 dB 1:21 54-Royal Consort Sett No. 7 in a – IV. Aire
DR10 -2.42 dB -16.87 dB 1:41 55-Royal Consort Sett No. 7 in a – V. Corant
DR11 -1.05 dB -16.59 dB 0:33 56-Royal Consort Sett No. 7 in a – VI. Saraband
DR11 -1.15 dB -18.74 dB 3:48 57-Royal Consort Sett No. 10 in B flat – I. Paven
DR11 -2.40 dB -17.90 dB 1:59 58-Royal Consort Sett No. 10 in B flat – II. Alman
DR12 -3.43 dB -18.70 dB 1:33 59-Royal Consort Sett No. 10 in B flat – III. Corant
DR11 -5.12 dB -18.17 dB 1:55 60-Royal Consort Sett No. 10 in B flat – IV. Alman
DR10 -6.46 dB -19.12 dB 1:04 61-Royal Consort Sett No. 10 in B flat – V. Corant
DR10 -3.48 dB -17.62 dB 0:39 62-Royal Consort Sett No. 10 in B flat – VI. Saraband
DR13 -3.24 dB -19.53 dB 6:07 63-Sett a4 in d – I. Paven
DR11 -4.25 dB -18.07 dB 2:12 64-Sett a4 in d – II. Alman
DR11 -3.36 dB -20.64 dB 0:39 65-Sett a4 in d – III. Saraband
DR11 -2.77 dB -16.81 dB 3:09 66-X Sett a6 in c 'to the Organ' – I. Fantazy
DR12 -0.57 dB -16.45 dB 3:26 67-X Sett a6 in c 'to the Organ' – II. Fantazy
DR11 -2.34 dB -16.78 dB 4:04 68-X Sett a6 in c 'to the Organ' – III. Inomine
DR12 -0.80 dB -16.18 dB 2:37 69-X Sett a6 in c 'to the Organ' – IV. Aire
DR12 -0.45 dB -16.65 dB 3:50 70-VII Sett a6 in C 'to the Organ' – I. Fantazy
DR11 -0.39 dB -15.14 dB 3:04 71-VII Sett a6 in C 'to the Organ' – II. Fantazy
DR11 -1.53 dB -16.13 dB 3:18 72-VII Sett a6 in C 'to the Organ' – III. Aire
--------------------------------------------------------------------------------
Number of tracks: 72
Official DR value: DR11
Samplerate: 96000 Hz
Channels: 2
Bits per sample: 24
Bitrate: 2518 kbps
Codec: FLAC
================================================================================

Скриншот спектра частот

Доп. информация

При скачивании, если необходимо, переименуйте папку, в которой будет находиться альбомБольшая просьба к скачавшим поддерживать раздачу! Помогайте другим, ведь вам тоже может понадобиться помощь!Не забываем говорить "Спасибо"!Комментарии приветствуются!
[teatrix.ru].t21720.torrent 
Торрент: Зарегистрирован [ 2016-03-20 12:55 ] · 72AAAA3A8475121220EAE15AB07F15AF6F94B661

Скачать .torrent

Скачать

19 KB

Статус: проверено
Скачан: 0 раз
Размер: 2.55 GB
terms.php



Быстрый ответ

Имя:

      
Для отправки сообщений необходимо включить JavaScript
Показать сообщения:    

Текущее время: 18-Янв 02:33

Часовой пояс: UTC + 3


Вы можете начинать темы
Вы можете отвечать на сообщения
Вы не можете редактировать свои сообщения
Вы не можете удалять свои сообщения
Вы не можете голосовать в опросах
Вы не можете прикреплять файлы к сообщениям
Вы можете скачивать файлы