(Classical) Avanti l'Opera: an A-Z of Italian Baroque Overtures: Albinoni, Bernabei, Bononcini, Caldara, Conti, Legrenzi, Leo, Pollarolo, Scarlatti, Steffani, Pasquini, Pollarolo - Charivari Agreable, Kah-Ming Ng - 2014, FLAC (image+.cue) lossle


 

[Цитировать]

Avanti l'Opera: an A-Z of Italian Baroque Overtures: Albinoni, Bernabei, Bononcini, Caldara, Conti, Legrenzi, Leo, Pollarolo, Scarlatti, Steffani, Pasquini, Pollarolo - Charivari Agréable, Kah-Ming Ng
Жанр: Classical
Страна-производитель диска: UK
Год издания диска: 2014
Издатель (лейбл): Signum Records
Номер по каталогу: SIGCD383
Дата записи: 2013
Аудиокодек: FLAC
Тип рипа: image+.cue
Битрейт аудио: lossless
Продолжительность: 63:15
Источник: собственный рип
Наличие сканов в содержимом раздачи: да
Треклист:
[1] Attilio Ariosti: Vespasiano
[2] Leonardo Leo: Catone in Utica
[3] Giovanni Bononcini: Cefalo
[4] Antonio Caldara: L'Olimpiade
[5] Carlo Francesco Pollarolo: La Proserpine
[6] Alessandro Scarlatti: La Statira
[7] Giovanni Bononcini: Turno Aricino
[8] Giovanni Bononcini: Il trionfo di Camilla
[9] Giuseppe Antonio Bernabei: L'Ascanio
[10] Bernardo Pasquini: L'Idalma
[11] Tomaso Giovanni Albinoni: Zenobia
[12] Pietro Andrea Ziani: Il Talamo
[13] Carlo Francesco Pollarolo: Gl'inganni felici
[14] Giovanni Legrenzi: Il Totila
[15] Agostino Steffani: La lotta d'Alcide con Acheloo
[16] Alessandro Scarlatti: La caduta di Decemviri
[17] Francesco Bartolomeo Conti: Il trionfo della fama
Исполнители:
Charivari Agréable
Kah-Ming Ng
director

Лог создания рипа

Exact Audio Copy V1.0 beta 3 from 29. August 2011
EAC extraction logfile from 11. July 2015, 9:20
Charivari Agréable, Kah-Ming Ng / Avanti l'Opera
Used drive : HL-DT-STDVDRAM GU70N Adapter: 0 ID: 0
Read mode : Secure
Utilize accurate stream : Yes
Defeat audio cache : Yes
Make use of C2 pointers : No
Read offset correction : 48
Overread into Lead-In and Lead-Out : No
Fill up missing offset samples with silence : Yes
Delete leading and trailing silent blocks : No
Null samples used in CRC calculations : Yes
Used interface : Native Win32 interface for Win NT & 2000
Used output format : User Defined Encoder
Selected bitrate : 128 kBit/s
Quality : High
Add ID3 tag : No
Command line compressor : C:\Program Files (x86)\Exact Audio Copy\Flac\flac.exe
Additional command line options : -V -8 -T "Date=%year%" -T "Genre=%genre%" %source%
TOC of the extracted CD
Track | Start | Length | Start sector | End sector
---------------------------------------------------------
1 | 0:00.00 | 5:43.61 | 0 | 25785
2 | 5:43.61 | 2:39.41 | 25786 | 37751
3 | 8:23.27 | 2:25.46 | 37752 | 48672
4 | 10:48.73 | 4:47.63 | 48673 | 70260
5 | 15:36.61 | 4:14.54 | 70261 | 89364
6 | 19:51.40 | 3:23.21 | 89365 | 104610
7 | 23:14.61 | 3:45.23 | 104611 | 121508
8 | 27:00.09 | 4:53.51 | 121509 | 143534
9 | 31:53.60 | 2:56.43 | 143535 | 156777
10 | 34:50.28 | 3:05.32 | 156778 | 170684
11 | 37:55.60 | 4:03.07 | 170685 | 188916
12 | 41:58.67 | 3:51.29 | 188917 | 206270
13 | 45:50.21 | 2:29.52 | 206271 | 217497
14 | 48:19.73 | 1:52.45 | 217498 | 225942
15 | 50:12.43 | 2:31.36 | 225943 | 237303
16 | 52:44.04 | 4:09.11 | 237304 | 255989
17 | 56:53.15 | 6:19.60 | 255990 | 284474
Range status and errors
Selected range
Filename C:\temp\Avanti l'Opera\Avanti l'Opera.wav
Peak level 95.4 %
Extraction speed 5.3 X
Range quality 100.0 %
Test CRC A0CC049A
Copy CRC A0CC049A
Copy OK
No errors occurred
AccurateRip summary
Track 1 not present in database
Track 2 not present in database
Track 3 not present in database
Track 4 not present in database
Track 5 not present in database
Track 6 not present in database
Track 7 not present in database
Track 8 not present in database
Track 9 not present in database
Track 10 not present in database
Track 11 not present in database
Track 12 not present in database
Track 13 not present in database
Track 14 not present in database
Track 15 not present in database
Track 16 not present in database
Track 17 not present in database
None of the tracks are present in the AccurateRip database
End of status report
==== Log checksum 2EB8EAC876A08523ECC7D37CE230726E13892485B13194F64A24BF41268220C0 ====



Показать сообщения:    

Текущее время: 09-Дек 03:06

Часовой пояс: UTC + 3


Вы не можете начинать темы
Вы не можете отвечать на сообщения
Вы не можете редактировать свои сообщения
Вы не можете удалять свои сообщения
Вы не можете голосовать в опросах
Вы не можете прикреплять файлы к сообщениям
Вы не можете скачивать файлы