[TR24][OF][Binaural+] David Chesky - The Zephyrtine: A Ballet Story (fantasy for children) - Fundação Orquestra Estúdio (Fundacao Orquestra Estudio), Rui Massena - 2013 (Classical / Ballet)

DL-List and Torrent activity [Update пиров]
Size:  1.61 GB   |    Registered:  7 months 5 days   |    Completed:  0 times

Seeder not seen: Never



David Chesky
The Zephyrtine: A Ballet Story
Fundação Orquestra Estúdio · Rui Massena
-Год издания: 2013 | Жанр: Classical
Издатель: Chesky Records | Продолжительность: 01:04:55
Наличие сканов: Sleeve, Digital Booklet- -Контейнер: FLAC (*.flac) | Тип рипа: tracks
Разрядность: 24bit / 192kHz | Количество каналов: 2.0
David Chesky (b. 1956)
The Zephyrtine: A Ballet Story (fantasy for children)
01.Ben’s Farm in Vermont (1:46)
02. The Zephyrtine Appears (0:48)
03. What Is This Magnificent Creature? (1:33)
04. The Zephyrtine Meets Ben (2:18)
05. Let’s Visit the Planet Eudora Where the Zephyrtines Live (3:15)
06. Morning in Eudora (2:42)
07. Dance of the Ice Cream Trees (1:52)
08. Dance of the Wingless Birds (1:50)
09. Dance of the Zephyrtines (2:05)
10. Dance of the Chocolate Cows (1:31)
11. Dance of the Vegetable Builders (3:13)
12. The Red King Kalek (2:40)
13. Daissa the Green Queen (2:26)
14. Chaya the Blue Princess (3:00)
15. Ib the Monster Comes down from the Mountains (2:55)
16. Where Is the Blue Princess? (2:25)
17. The Sapphire Forest (1:57)
18. Gortee the Wise Old Talking Fish (2:13)
19. Dance of the Fish That Live in the Trees (2:51)
20. Ben and the King (2:13)
21. Let’s Go Find a Real Pumpkin (2:36)
22. Ib the Monster’s Cave (5:51)
23. Ben and the Blue Princess (3:14)
24. The King Gives Billy an Ice Cream Tree (1:05)
25. The Grand Celebration (6:31)

О релизе

Rui Massena conducts the Fundação Orquestra Estúdio’s recording of David Chesky’s fantasy for children The Zephyrtine ballet. The characters throughout the ballet are represented by specific instruments; the two main characters, Ben and the Zephyrtine, are voiced by the piccolo and the French horn.
The Zephyrtine is a wonderful adventure that revolves around a little boy from Vermont, Ben, who meets a magical Zephyrtine and journeys to the enchanted land of Eudora. Eudora is a Utopian society where people are different colors, red, blue, green, and yellow! Vegetables are not grown instead built in factories, ice cream grows on trees, and fish fly. When the Blue Princess is captured by Ib the monster, it is up to Ben to rescue her and save the kingdom. Children are taken on a thrilling journey where they learn the importance of friendship and accepting cultural diversity.
Now headphone users will hear the same three-dimensional sound and imaging as audiophiles have for the past 25 years with Chesky Recordings. These new Binaural+ Series albums capture even more spatial realism for the home audiophile market, bringing you one step closer to the actual event.
Recorded October 21-28, 2012 at Plataforma das Artes e da Criatividade in Guimarães, Portugal
Fundação Orquestra Estúdio - Orchestra
Rui Massena - Conductor
Produced by David Chesky
Recorded, edited, and mastered by Pedro Mouga and Narciso Fernandes, SPL Estúdio, Portugal
Additionally mastered by Nicholas Prout
This recording was made with a Neumann KU-100 Binaural head, Mytek Stereo 192 A/D converter
This album was made with the purest audio path, using the very best microphones, mic preamps, analog-to-digital converters, recorders, and cables with careful attention to detail to produce the most transparent and natural sound available today.

ОтчётыДинамический диапазон

foobar2000 1.3.8 / Dynamic Range Meter 1.1.1
log date: 2015-07-11 19:12:28
Analyzed: Fundação Orquestra Estúdio, Rui Massena / Chesky: The Zephyrtine - A Ballet Story
DR Peak RMS Duration Track
DR15 -0.24 dB -26.29 dB 1:46 01-Ben’s Farm in Vermont
DR12 -11.78 dB -27.39 dB 0:48 02-The Zephyrtine Appears
DR13 -2.61 dB -28.21 dB 1:33 03-What Is This Magnificent Creature?
DR12 -10.89 dB -28.98 dB 2:18 04-The Zephyrtine Meets Ben
DR16 -1.73 dB -25.41 dB 3:15 05-Let’s Visit the Planet Eudora Where the Zephyrtines Live
DR14 -13.29 dB -31.96 dB 2:42 06-Morning in Eudora
DR12 -9.22 dB -25.55 dB 1:52 07-Dance of the Ice Cream Trees
DR13 -17.58 dB -38.18 dB 1:50 08-Dance of the Wingless Birds
DR10 -4.34 dB -19.95 dB 2:05 09-Dance of the Zephyrtines
DR15 -0.26 dB -22.04 dB 1:31 10-Dance of the Chocolate Cows
DR14 0.00 dB -20.85 dB 3:13 11-Dance of the Vegetable Builders
DR14 -6.79 dB -26.72 dB 2:40 12-The Red King Kalek
DR14 -7.05 dB -28.16 dB 2:26 13-Daissa the Green Queen
DR13 -11.64 dB -29.34 dB 3:00 14-Chaya the Blue Princess
DR12 -0.41 dB -16.21 dB 2:55 15-Ib the Monster Comes down from the Mountains
DR12 -6.74 dB -25.78 dB 2:25 16-Where Is the Blue Princess?
DR11 -21.25 dB -37.10 dB 1:57 17-The Sapphire Forest
DR11 -17.48 dB -33.37 dB 2:13 18-Gortee the Wise Old Talking Fish
DR12 -13.31 dB -30.13 dB 2:51 19-Dance of the Fish That Live in the Trees
DR14 -1.59 dB -19.72 dB 2:13 20-Ben and the King
DR15 -0.97 dB -24.90 dB 2:36 21-Let’s Go Find a Real Pumpkin
DR12 0.00 dB -16.65 dB 5:51 22-Ib the Monster’s Cave
DR12 -15.61 dB -32.27 dB 3:14 23-Ben and the Blue Princess
DR11 0.00 dB -14.74 dB 1:05 24-The King Gives Billy an Ice Cream Tree
DR14 0.00 dB -18.74 dB 6:31 25-The Grand Celebration
Number of tracks: 25
Official DR value: DR13
Samplerate: 192000 Hz
Channels: 2
Bits per sample: 24
Bitrate: 3476 kbps
Codec: FLAC

Скриншот спектра частот

Доп. информация

При скачивании, если необходимо, переименуйте папку, в которой будет находиться альбомБольшая просьба к скачавшим поддерживать раздачу! Помогайте другим, ведь вам тоже может понадобиться помощь!Не забываем говорить "Спасибо"!Комментарии приветствуются!
Torrent: Registered [ 2016-03-20 12:55 ] · 72B29DD2A6677FD2BD907B2B70F7A0C7DC319706

Download .torrent


18 KB

Status: checked
Completed: 0 times
Size: 1.61 GB

Quick Reply


Heads necessary to send messages to enable JavaScript
Display posts:    

Current time is: 26-Oct 03:24

All times are UTC + 3

You can post new topics in this forum
You can reply to topics in this forum
You cannot edit your posts in this forum
You cannot delete your posts in this forum
You cannot vote in polls in this forum
You cannot attach files in this forum
You can download files in this forum