(Orchestral) Gustav Mahler - Symphonien Nrn.5 und 9 (BBC Symphony Orchestrа - Pierre Boulez) - 1991, FLAC (image+.cue) lossless


 

[Цитировать]

Gustav Mahler
Sinfonia n.9 in Re Maggiore
Sinfonia n.5 in Do diesis minore
Pierre B O U L E Z
--- Жанр: Orchestral
Страна-производитель диска: Italy
Год издания диска: 1991
Издатель (лейбл): Arkadia
Дата записи: 1968/71
Аудиокодек: FLAC
Тип рипа: image+.cue
Битрейт аудио: lossless
Продолжительность: 2:20'07''
Источник: собственный рип
Наличие сканов в содержимом раздачи: да
Треклист:

CD1

[01] Symphonie Nr.9: I. Andante comodo
[02] II. Im tempo eines gemächlichen Ländlers
[03] III. Rondo-Burleske
[04] IV. Adagio (beginning)

Лог создания рипа

Exact Audio Copy V1.0 beta 4 from 7. December 2014
EAC extraction logfile from 16. May 2015, 19:28
BBC Symphony Orchestra - Pierre Boulez / Mahler - Symphonies Nos.5 and 9 (CD1)
Used drive : HL-DT-STDVD+-RW GU90N Adapter: 1 ID: 0
Read mode : Secure
Utilize accurate stream : Yes
Defeat audio cache : Yes
Make use of C2 pointers : No
Read offset correction : 102
Overread into Lead-In and Lead-Out : No
Fill up missing offset samples with silence : Yes
Delete leading and trailing silent blocks : No
Null samples used in CRC calculations : Yes
Used interface : Native Win32 interface for Win NT & 2000
Used output format : User Defined Encoder
Selected bitrate : 1024 kBit/s
Quality : High
Add ID3 tag : No
Command line compressor : C:\Program Files (x86)\FLAC\flac.exe
Additional command line options : -T "COMMENT=rip by el coronel" -8 -V %source%
TOC of the extracted CD
Track | Start | Length | Start sector | End sector
---------------------------------------------------------
1 | 0:00.33 | 32:23.00 | 33 | 145757
2 | 32:23.33 | 14:58.00 | 145758 | 213107
3 | 47:21.33 | 13:40.00 | 213108 | 274607
4 | 61:01.33 | 9:34.50 | 274608 | 317707
Range status and errors
Selected range
Filename F:\Music\Mahler 5 9 (BBC - Boulez)\CD1.wav
Peak level 92.0 %
Extraction speed 4.9 X
Range quality 100.0 %
Test CRC 0E4F4D8B
Copy CRC 0E4F4D8B
Copy OK
No errors occurred
AccurateRip summary
Track 1 cannot be verified as accurate (confidence 1) [57A08A40], AccurateRip returned [F13C98D6] (AR v2)
Track 2 cannot be verified as accurate (confidence 1) [B16A7D2A], AccurateRip returned [DF7E937D] (AR v2)
Track 3 cannot be verified as accurate (confidence 1) [DDCF94CA], AccurateRip returned [8D305131] (AR v2)
Track 4 cannot be verified as accurate (confidence 1) [21CCDAF5], AccurateRip returned [6CE4885B] (AR v2)
No tracks could be verified as accurate
You may have a different pressing from the one(s) in the database
End of status report
---- CUETools DB Plugin V2.1.4
[CTDB TOCID: 3LTVvYQE6b_QAAKROmpjkREg5iE-] found
Submit result: 3LTVvYQE6b_QAAKROmpjkREg5iE- has been confirmed
Track | CTDB Status
1 | (1/1) Accurately ripped
2 | (1/1) Accurately ripped
3 | (1/1) Accurately ripped
4 | (1/1) Accurately ripped
==== Log checksum 90F56F5BADBCC6701E9B9514707DB7D6F005F3D5EC5C260081C37242F8A62007 ====

Содержание индексной карты (.CUE)

REM GENRE Classical
REM DATE 1991
REM DISCID 38108C04
REM COMMENT ExactAudioCopy v1.0b4
PERFORMER "BBC Symphony Orchestra - Pierre Boulez"
TITLE "Mahler - Symphonies Nos.5 and 9 (CD1)"
FILE "CD1.flac" WAVE
TRACK 01 AUDIO
TITLE "Symphonie Nr.9: I. Andante comodo"
INDEX 00 00:00:00
INDEX 01 00:00:33
TRACK 02 AUDIO
TITLE "II. Im tempo eines gemachlichen Landlers"
INDEX 00 32:22:33
INDEX 01 32:23:33
TRACK 03 AUDIO
TITLE "III. Rondo-Burleske"
INDEX 01 47:21:33
TRACK 04 AUDIO
TITLE "IV. Adagio (beginning)"
INDEX 00 61:00:33
INDEX 01 61:01:33

CD2

[01] Symphonie Nr.9: IV. Adagio (conclusion)
[02] Symphonie Nr.5: I. Trauermarsch
[03] II. Stürmich bewegt
[04] III. Scherzo: Kraftig, nicht zu schnell
[05] IV. Adagietto
[06] V. Rondo-Finale

Лог создания рипа

Exact Audio Copy V1.0 beta 4 from 7. December 2014
EAC extraction logfile from 16. May 2015, 20:08
BBC Symphony Orchestra - Pierre Boulez / Mahler - Symphonies Nos.5 and 9 (CD2)
Used drive : HL-DT-STDVD+-RW GU90N Adapter: 1 ID: 0
Read mode : Secure
Utilize accurate stream : Yes
Defeat audio cache : Yes
Make use of C2 pointers : No
Read offset correction : 102
Overread into Lead-In and Lead-Out : No
Fill up missing offset samples with silence : Yes
Delete leading and trailing silent blocks : No
Null samples used in CRC calculations : Yes
Used interface : Native Win32 interface for Win NT & 2000
Used output format : User Defined Encoder
Selected bitrate : 1024 kBit/s
Quality : High
Add ID3 tag : No
Command line compressor : C:\Program Files (x86)\FLAC\flac.exe
Additional command line options : -T "COMMENT=rip by el coronel" -8 -V %source%
TOC of the extracted CD
Track | Start | Length | Start sector | End sector
---------------------------------------------------------
1 | 0:00.33 | 14:03.37 | 33 | 63294
2 | 14:03.70 | 14:01.63 | 63295 | 126432
3 | 28:05.58 | 13:54.37 | 126433 | 189019
4 | 42:00.20 | 15:26.13 | 189020 | 258482
5 | 57:26.33 | 7:37.25 | 258483 | 292782
6 | 65:03.58 | 13:28.25 | 292783 | 353407
Range status and errors
Selected range
Filename F:\Music\Mahler 5 9 (BBC - Boulez)\CD2.wav
Peak level 85.4 %
Extraction speed 5.1 X
Range quality 99.9 %
Test CRC 110F7737
Copy CRC 110F7737
Copy OK
No errors occurred
AccurateRip summary
Track 1 not present in database
Track 2 not present in database
Track 3 not present in database
Track 4 not present in database
Track 5 not present in database
Track 6 not present in database
None of the tracks are present in the AccurateRip database
End of status report
---- CUETools DB Plugin V2.1.4
[CTDB TOCID: ZzcA1hVo83M.zrxKA1UAyfiFd8g-] found
Submit result: ZzcA1hVo83M.zrxKA1UAyfiFd8g- has been confirmed
Track | CTDB Status
1 | (1/1) Accurately ripped
2 | (1/1) Accurately ripped
3 | (1/1) Accurately ripped
4 | (1/1) Accurately ripped
5 | (1/1) Accurately ripped
6 | (1/1) Accurately ripped
==== Log checksum FDA85B02052AA6C69B6E68995C3C3391E3DC6E679739DD486AF802CC78B1C1DD ====

Содержание индексной карты (.CUE)

REM GENRE Classical
REM DATE 1991
REM DISCID 58126806
REM COMMENT "ExactAudioCopy v1.0b4"
PERFORMER "BBC Symphony Orchestra - Pierre Boulez"
TITLE "Mahler - Symphonies Nos.5 and 9 (CD2)"
FILE "CD2.flac" WAVE
TRACK 01 AUDIO
TITLE "Symphonie Nr.9: IV. Adagio (conclusion)"
PERFORMER "BBC Symphony Orchestra - Pierre Boulez"
INDEX 00 00:00:00
INDEX 01 00:00:33
TRACK 02 AUDIO
TITLE "Symphonie Nr.5: I. Trauermarsch"
PERFORMER "BBC Symphony Orchestra - Pierre Boulez"
INDEX 00 14:01:70
INDEX 01 14:03:70
TRACK 03 AUDIO
TITLE "II. Sturmich bewegt"
PERFORMER "BBC Symphony Orchestra - Pierre Boulez"
INDEX 01 28:05:58
TRACK 04 AUDIO
TITLE "III. Scherzo: Kraftig, nicht zu schnell"
PERFORMER "BBC Symphony Orchestra - Pierre Boulez"
INDEX 00 41:57:20
INDEX 01 42:00:20
TRACK 05 AUDIO
TITLE "IV. Adagietto"
PERFORMER "BBC Symphony Orchestra - Pierre Boulez"
INDEX 00 57:24:33
INDEX 01 57:26:33
TRACK 06 AUDIO
TITLE "V. Rondo-Finale"
PERFORMER "BBC Symphony Orchestra - Pierre Boulez"
INDEX 00 65:01:58
INDEX 01 65:03:58
Исполнители:
BBC Symphony Orchestra - Pierre Boulez



Показать сообщения:    

Текущее время: 05-Дек 19:32

Часовой пояс: UTC + 3


Вы не можете начинать темы
Вы не можете отвечать на сообщения
Вы не можете редактировать свои сообщения
Вы не можете удалять свои сообщения
Вы не можете голосовать в опросах
Вы не можете прикреплять файлы к сообщениям
Вы не можете скачивать файлы