Повесть Тикамацу / Рассказ Тикамацу / Chikamatsu Monogatari / The Tale of the Crucified Lovers (Кэндзи Мидзогути / Kenji Mizoguchi) [1954, Япония, драма, экранизация, DVB-AVC] MVO (Kino Polska)


Статистика раздачи [Обновить пиров]
Размер:  624 MB   |    Зарегистрирован:  8 месяцев 13 дней   |    Скачан:  0 раз

Полного источника не было: Никогда

 
   
 
 
 

[Цитировать]

Повесть Тикамацу
Chikamatsu Monogatari- Страна: Япония
Жанр: драма, экранизация
Год выпуска: 1954
Продолжительность: 01:37:38Перевод: Профессиональный (многоголосый закадровый) по заказу Kino Polska на производственно-технической базе Студии "Акцент"
Cубтитры: нет
Оригинальная аудиодорожка: японский
Режиссер: Кэндзи Мидзогути / Kenji Mizoguchi
В ролях: Хасегава Казуо, Кагава Кёко, Минамида Йоко, Синдо Эитаро
Описание: По пьесе Тикамацу Мондзаэмона / Monzaemon Chikamatsu "Daikyōji Mukashi-Goyomi" (1715), написанной по реальным событиям, происшедшим в 1683 году в Тама, когда двое возлюбленных, совершивших прелюбодеяние, были распяты.
17 век. Япония, Киото. Молодая женщина Осан замужем за состоятельным хозяином типографии Исуном. Когда муж ложно обвиняет её в любовной связи с работником типографии Мохеем, они вдвоем бегут из города. Исун посылает людей самостоятельно найти их, чтобы избежать публичной огласки произошедшего. (DarLeg)
Доп. информация: Filmbox Arthouse IPTV
Награды: номинация на "Золотую пальмовую ветвь" Cannes Film Festival 1955; приз лучшему режиссеру Blue Ribbon Awards 1955.

Качество видео: DVB-AVC
Формат видео: MKV
Видео: AVC (H.264), 720x576@1024x576 (16:9), 25 fps, ~619 kbps avg, 0.052 bit/pixel
Аудио 1: MPEG Audio 2, 2 ch, 48 kHz, ~128.00 kbps avg - русский
Аудио 2: MPEG Audio 2, 2 ch, 48 kHz, ~128.00 kbps avg - японский

MediaInfo

Общее
Уникальный идентификатор : 217582155910393753680102685472193002095 (0xA3B0CC878AE7E04887A58B8AA4E83A6F)
Полное имя : F:\My Torrents 3\[apreder]Chikamatsu_Monogatari(1954)DVB.mkv
Формат : Matroska
Версия формата : Version 2
Размер файла : 624 Мбайт
Продолжительность : 1 ч. 37 м.
Общий поток : 893 Кбит/сек
Дата кодирования : UTC 2015-07-11 18:18:13
Программа кодирования : mkvmerge v8.1.0 ('Psychedelic Postcard') 64bit
Библиотека кодирования : libebml v1.3.1 + libmatroska v1.4.2
Attachements : cover.jpg / cover_small.jpg
Видео
Идентификатор : 3
Формат : AVC
Формат/Информация : Advanced Video Codec
Профиль формата : Main@L3
Параметр CABAC формата : Да
Параметр ReFrames формата : 3 кадра
Параметр GOP формата : M=4, N=32
Идентификатор кодека : V_MPEG4/ISO/AVC
Битрейт : 619 Кбит/сек
Ширина : 720 пикселей
Высота : 576 пикселей
Соотношение сторон : 16:9
Соотношение сторон в оригинале : 16:9
Режим частоты кадров : Переменный
Частота кадров в оригинале : 25,000 кадров/сек
Стандарт вещания : Component
Цветовое пространство : YUV
Субдискретизация насыщенности : 4:2:0
Битовая глубина : 8 бит
Тип развёртки : Чересстрочная
Порядок развёртки : Верхнее поле первое
Default : Да
Forced : Нет
colour_range : Limited
Основные цвета : BT.601 PAL
Характеристики трансфера : BT.470 System B, BT.470 System G
Коэффициенты матрицы : BT.601
Аудио #1
Идентификатор : 1
Формат : MPEG Audio
Версия формата : Version 1
Профиль формата : Layer 2
Идентификатор кодека : A_MPEG/L2
Идентификатор кодека/Подсказка : MP2
Продолжительность : 1 ч. 37 м.
Вид битрейта : Постоянный
Битрейт : 128 Кбит/сек
Каналы : 2 канала
Частота : 48,0 КГц
Метод сжатия : С потерями
Задержка видео : -11 мс.
Размер потока : 89,4 Мбайт (14%)
Язык : Russian
Default : Да
Forced : Нет
Аудио #2
Идентификатор : 2
Формат : MPEG Audio
Версия формата : Version 1
Профиль формата : Layer 2
Идентификатор кодека : A_MPEG/L2
Идентификатор кодека/Подсказка : MP2
Продолжительность : 1 ч. 37 м.
Вид битрейта : Постоянный
Битрейт : 128 Кбит/сек
Каналы : 2 канала
Частота : 48,0 КГц
Метод сжатия : С потерями
Задержка видео : -11 мс.
Размер потока : 89,4 Мбайт (14%)
Язык : Japanese
Default : Нет
Forced : Нет

Скриншот c названием фильма

Скриншоты


Резервные скриншоты


-[2'456]
[teatrix.ru].t21726.torrent 
Торрент: Зарегистрирован [ 2016-03-20 12:55 ] · A67DA3038E5E8744B70F43F2A144C7BD63447AAA

Скачать .torrent

Скачать

13 KB

Статус: проверено
Скачан: 0 раз
Размер: 624 MB
terms.php



Быстрый ответ

Имя:

      
Для отправки сообщений необходимо включить JavaScript
Показать сообщения:    

Текущее время: 03-Дек 01:18

Часовой пояс: UTC + 3


Вы можете начинать темы
Вы можете отвечать на сообщения
Вы не можете редактировать свои сообщения
Вы не можете удалять свои сообщения
Вы не можете голосовать в опросах
Вы не можете прикреплять файлы к сообщениям
Вы можете скачивать файлы