Возрасты Лулу / Las edades de Lulú / Las edades de Lulu (Бигас Луна / Bigas Luna) [1990, Испания, драма, эротика, DVDRip-AVC] MVO (Ульпаней Эльром) + AVO (Антон Алексеев)


Статистика раздачи [Обновить пиров]
Размер:  1.45 GB   |    Зарегистрирован:  8 месяцев 17 дней   |    Скачан:  0 раз

Полного источника не было: Никогда

 
   
 
 
 

[Цитировать]

Возрасты Лулу / Las edades de Lulú / Las edades de Lulu
Страна: Испания
Жанр: драма, эротика
Год выпуска: 1990
Продолжительность: 01:31:40
Перевод №1: Профессиональный (многоголосый закадровый) Ульпаней Эльром
Перевод №2: Авторский (одноголосый закадровый) Антон Алексеев
Cубтитры: нет
Оригинальная аудиодорожка: нет
Навигация по главам: есть
Режиссер: Бигас Луна / Bigas Luna
В ролях: Франческа Нери, Оскар Ладор, Мария Барранко, Фернандо Гильен Куэрво, Росана Пастор, Хавьер Бардем, Хуан Граелл, Родриго Вальверде, Пилар Бардем, Марта Мэй и др.
О фильме: Очаровательная Лулу потеряла невинность в весьма нежном возрасте. Лишь в законном союзе с Пабло она узнала, что такое истинная любовь. На долю Лулу выпадет встреча не только с райской стороной секса, но и с адскими муками... История жизни молодой девушки по имени Лулу и ее отношений с Пабло, американским профессором, соблазнившим Лулу еще совсем молоденькой девушкой и манипулирующим ею. История о том, что секс и любовь — разные вещи. Так утверждает Пабло, проводя Лулу через ряд сексуальных экспериментов. Тут тебе и инцест, и транссексуалы, и участие Лулу в оргиях с геями, и садо-мазо...
Доп. информация: http://www.imdb.com/title/tt0099484/
Исходник: http://teatrix.ru/viewtopic.php?t=7470
Сэмпл: http://rusfolder.com/43931472
Качество видео: DVDRip-AVC
Формат видео: MKV
Видео: x264, 696x568@989x568 (16:9), 25 fps, ~1795 kbps avg, 0.18 bit/pixel
Аудио #1: 48 kHz, AC3 Dolby Digital, 2/0 (L,R) ch, ~192 kbps avg - MVO
Аудио #2: 48 kHz, AC3 Dolby Digital, 2/0 (L,R) ch, ~192 kbps avg - AVO

MediaInfo

Общее
Уникальный идентификатор : 208019728800859556879924964198050120517 (0x9C7F24790D01B38A8038CF3915974345)
Полное имя : H:\Фильмы\Возрасты Лулу\Las.edades.de.Lulu_1990.DVDRip-AVC.mkv
Формат : Matroska
Версия формата : Version 4 / Version 2
Размер файла : 1,45 Гбайт
Продолжительность : 1 ч. 35 м.
Общий поток : 2181 Кбит/сек
Название фильма : Las edades de Lulu (Bigas Luna, 1990) DVDRip-AVC
Дата кодирования : UTC 2015-02-28 15:19:32
Программа кодирования : mkvmerge v6.1.0 ('Old Devil') built on Mar 4 2013 09:10:42
Библиотека кодирования : libebml v1.3.0 + libmatroska v1.4.0
Видео
Идентификатор : 1
Формат : AVC
Формат/Информация : Advanced Video Codec
Профиль формата : High@L4.1
Параметр CABAC формата : Да
Параметр ReFrames формата : 12 кадров
Идентификатор кодека : V_MPEG4/ISO/AVC
Продолжительность : 1 ч. 35 м.
Битрейт : 1795 Кбит/сек
Ширина : 696 пикселей
Высота : 568 пикселей
Соотношение сторон : 16:9
Соотношение сторон в оригинале : 16:9
Режим частоты кадров : Постоянный
Частота кадров : 25,000 кадров/сек
Цветовое пространство : YUV
Субдискретизация насыщенности : 4:2:0
Битовая глубина : 8 бит
Тип развёртки : Прогрессивная
Бит/(Пиксели*Кадры) : 0.182
Размер потока : 1,17 Гбайт (80%)
Библиотека кодирования : x264 core 142 r2491 24e4fed
Настройки программы : cabac=1 / ref=12 / deblock=1:-2:-1 / analyse=0x3:0x133 / me=umh / subme=10 / psy=1 / psy_rd=1.00:0.20 / mixed_ref=1 / me_range=40 / chroma_me=1 / trellis=2 / 8x8dct=1 / cqm=0 / deadzone=6,6 / fast_pskip=0 / chroma_qp_offset=-3 / threads=6 / lookahead_threads=1 / sliced_threads=0 / nr=0 / decimate=0 / interlaced=0 / bluray_compat=0 / constrained_intra=0 / bframes=10 / b_pyramid=2 / b_adapt=2 / b_bias=0 / direct=3 / weightb=1 / open_gop=0 / weightp=2 / keyint=250 / keyint_min=25 / scenecut=40 / intra_refresh=0 / rc=2pass / mbtree=0 / bitrate=1795 / ratetol=1.0 / qcomp=0.75 / qpmin=10 / qpmax=51 / qpstep=4 / cplxblur=20.0 / qblur=0.5 / ip_ratio=1.10 / pb_ratio=1.10 / aq=1:0.50
Язык : Spanish
Default : Да
Forced : Нет
Коэффициенты матрицы : BT.601
Аудио #1
Идентификатор : 2
Формат : AC-3
Формат/Информация : Audio Coding 3
Расширение режима : CM (complete main)
Параметр Endianness формата : Big
Идентификатор кодека : A_AC3
Продолжительность : 1 ч. 35 м.
Вид битрейта : Постоянный
Битрейт : 192 Кбит/сек
Каналы : 2 канала
Расположение каналов : Front: L R
Частота : 48,0 КГц
Битовая глубина : 16 бит
Метод сжатия : С потерями
Размер потока : 131 Мбайт (9%)
Заголовок : MVO - Ульпаней Эльром
Язык : Russian
Default : Да
Forced : Нет
Аудио #2
Идентификатор : 3
Формат : AC-3
Формат/Информация : Audio Coding 3
Расширение режима : CM (complete main)
Параметр Endianness формата : Big
Идентификатор кодека : A_AC3
Продолжительность : 1 ч. 35 м.
Вид битрейта : Постоянный
Битрейт : 192 Кбит/сек
Каналы : 2 канала
Расположение каналов : Front: L R
Частота : 48,0 КГц
Битовая глубина : 16 бит
Метод сжатия : С потерями
Размер потока : 131 Мбайт (9%)
Заголовок : AVO - Антон Алексеев
Язык : Russian
Default : Нет
Forced : Нет
Меню
00:00:00.000 : en:Chapter 1
00:13:33.800 : en:Chapter 2
00:20:40.200 : en:Chapter 3
00:24:46.160 : en:Chapter 4
00:30:29.880 : en:Chapter 5
00:37:04.560 : en:Chapter 6
00:46:45.920 : en:Chapter 7
00:52:49.400 : en:Chapter 8
00:59:30.320 : en:Chapter 9
01:06:58.560 : en:Chapter 10
01:20:18.840 : en:Chapter 11
01:32:03.440 : en:Chapter 12

x264

x264 [info]: frame I:709 Avg QP:17.67 size: 29661
x264 [info]: frame P:29183 Avg QP:18.69 size: 15851
x264 [info]: frame B:113276 Avg QP:19.38 size: 7075
x264 [info]: consecutive B-frames: 0.8% 1.2% 6.5% 18.9% 24.0% 39.8% 6.4% 1.2% 0.7% 0.3% 0.2%
x264 [info]: mb I I16..4: 10.9% 79.3% 9.8%
x264 [info]: mb P I16..4: 2.8% 18.2% 1.7% P16..4: 45.4% 17.8% 11.7% 0.2% 0.0% skip: 2.1%
x264 [info]: mb B I16..4: 0.2% 1.8% 0.2% B16..8: 41.4% 11.1% 2.5% direct: 9.2% skip:33.6% L0:41.4% L1:44.2% BI:14.3%
x264 [info]: 8x8 transform intra:80.6% inter:69.4%
x264 [info]: direct mvs spatial:97.0% temporal:3.0%
x264 [info]: coded y,uvDC,uvAC intra: 82.3% 79.3% 53.8% inter: 29.0% 30.5% 9.8%
x264 [info]: i16 v,h,dc,p: 24% 12% 13% 51%
x264 [info]: i8 v,h,dc,ddl,ddr,vr,hd,vl,hu: 19% 8% 7% 8% 12% 14% 10% 13% 10%
x264 [info]: i4 v,h,dc,ddl,ddr,vr,hd,vl,hu: 16% 11% 4% 8% 14% 16% 11% 11% 9%
x264 [info]: i8c dc,h,v,p: 35% 20% 25% 20%
x264 [info]: Weighted P-Frames: Y:13.2% UV:8.8%
x264 [info]: ref P L0: 45.8% 6.5% 16.2% 8.0% 6.0% 4.7% 3.9% 2.4% 2.0% 1.7% 1.4% 1.2% 0.2% 0.0%
x264 [info]: ref B L0: 80.1% 10.9% 3.5% 1.6% 1.2% 0.9% 0.7% 0.4% 0.3% 0.2% 0.1%
x264 [info]: ref B L1: 94.3% 5.7%

Скриншоты


[teatrix.ru].t21727.torrent 
Торрент: Зарегистрирован [ 2016-03-20 12:55 ] · 672EB8FAE7002451DB895564182520AD4356637F

Скачать .torrent

Скачать

15 KB

Статус: проверено
Скачан: 0 раз
Размер: 1.45 GB
terms.php



Быстрый ответ

Имя:

      
Для отправки сообщений необходимо включить JavaScript
Показать сообщения:    

Текущее время: 07-Дек 00:54

Часовой пояс: UTC + 3


Вы можете начинать темы
Вы можете отвечать на сообщения
Вы не можете редактировать свои сообщения
Вы не можете удалять свои сообщения
Вы не можете голосовать в опросах
Вы не можете прикреплять файлы к сообщениям
Вы можете скачивать файлы