(Classical) Christoph Graupner - Concerti e Musica di Tavola - Accademia Daniel, Shalev Ad-El - 2015, FLAC (image+.cue) lossless


 

[Цитировать]

Christoph Graupner - Concerti e Musica di Tavola - Accademia Daniel, Shalev Ad-El
Жанр: Classical
Страна-производитель диска: Germany
Год издания диска: 2015
Издатель (лейбл): CPO
Номер по каталогу: cpo777645-2
Дата записи: 2010
Аудиокодек: FLAC
Тип рипа: image+.cue
Битрейт аудио: lossless
Продолжительность: 67:17
Источник: собственный рип
Наличие сканов в содержимом раздачи: да
Треклист:
Christoph Graupner (1683–1760)
Concerti e Musica di Tavola
[1]-[3] Concerto in C-Dur, GWV 306
für Chalumeau, Fagott und Violoncello solo, zwei Violinen, Viola und Cembalo (ca. 1737)
[4]-[11] Entrata per la Musica di Tavola in g-moll, GWV 468
für zwei Violinen, Viola und Cembalo (ca. 1729–1734)
[12]-[14] Concerto in C-Dur, GWV 302
für Oboe d’amore, zwei Violinen, Viola und Cembalo (ca. 1737)
[15]-[17] Concerto in A-Dur, GWV 337
für Violine solo, zwei Violinen, Viola und Cembalo (ca. 1742)
[18]-[20] Concerto in C-Dur, GWV 301
für Fagott, zwei Violinen, Viola und Cembalo (ca. 1736)
Исполнители:
Accademia Daniel
Shalev Ad-El

Лог создания рипа

Exact Audio Copy V1.0 beta 3 from 29. August 2011
EAC extraction logfile from 23. February 2015, 1:55
Accademia Daniel, Shalev Ad-El / Graupner - Concerti e Musica di Tavola
Used drive : HL-DT-STDVDRAM GU70N Adapter: 0 ID: 0
Read mode : Secure
Utilize accurate stream : Yes
Defeat audio cache : Yes
Make use of C2 pointers : No
Read offset correction : 48
Overread into Lead-In and Lead-Out : No
Fill up missing offset samples with silence : Yes
Delete leading and trailing silent blocks : No
Null samples used in CRC calculations : Yes
Used interface : Native Win32 interface for Win NT & 2000
Used output format : User Defined Encoder
Selected bitrate : 128 kBit/s
Quality : High
Add ID3 tag : No
Command line compressor : C:\Program Files (x86)\Exact Audio Copy\Flac\flac.exe
Additional command line options : -V -8 -T "Date=%year%" -T "Genre=%genre%" %source%
TOC of the extracted CD
Track | Start | Length | Start sector | End sector
---------------------------------------------------------
1 | 0:00.00 | 3:48.02 | 0 | 17101
2 | 3:48.02 | 1:40.58 | 17102 | 24659
3 | 5:28.60 | 4:49.10 | 24660 | 46344
4 | 10:17.70 | 6:18.24 | 46345 | 74718
5 | 16:36.19 | 3:18.17 | 74719 | 89585
6 | 19:54.36 | 1:21.55 | 89586 | 95715
7 | 21:16.16 | 2:21.32 | 95716 | 106322
8 | 23:37.48 | 0:49.63 | 106323 | 110060
9 | 24:27.36 | 1:08.10 | 110061 | 115170
10 | 25:35.46 | 2:35.24 | 115171 | 126819
11 | 28:10.70 | 1:38.29 | 126820 | 134198
12 | 29:49.24 | 4:52.46 | 134199 | 156144
13 | 34:41.70 | 1:47.65 | 156145 | 164234
14 | 36:29.60 | 3:43.56 | 164235 | 181015
15 | 40:13.41 | 4:41.28 | 181016 | 202118
16 | 44:54.69 | 3:00.49 | 202119 | 215667
17 | 47:55.43 | 8:00.61 | 215668 | 251728
18 | 55:56.29 | 4:10.48 | 251729 | 270526
19 | 60:07.02 | 3:22.27 | 270527 | 285703
20 | 63:29.29 | 3:45.48 | 285704 | 302626
Range status and errors
Selected range
Filename C:\temp\cpo777645-2_Graupner - Concerti e Musica di Tavola (Accademia Daniel, Ad-El - CPO)\Graupner - Concerti e Musica di Tavola.wav
Peak level 99.9 %
Extraction speed 2.2 X
Range quality 100.0 %
Test CRC A0A8F10F
Copy CRC A0A8F10F
Copy OK
No errors occurred
AccurateRip summary
Track 1 accurately ripped (confidence 2) [89191D06] (AR v2)
Track 2 accurately ripped (confidence 2) [C70FB7DF] (AR v2)
Track 3 accurately ripped (confidence 2) [C66F3129] (AR v2)
Track 4 accurately ripped (confidence 2) [7B5544E7] (AR v2)
Track 5 accurately ripped (confidence 2) [46A891EB] (AR v2)
Track 6 accurately ripped (confidence 2) [D4E0936A] (AR v2)
Track 7 accurately ripped (confidence 2) [A28641C0] (AR v2)
Track 8 accurately ripped (confidence 2) [6CB67F11] (AR v2)
Track 9 accurately ripped (confidence 2) [462FD45F] (AR v2)
Track 10 accurately ripped (confidence 2) [2C0819E0] (AR v2)
Track 11 accurately ripped (confidence 2) [909407DE] (AR v2)
Track 12 accurately ripped (confidence 2) [BFE12F77] (AR v2)
Track 13 accurately ripped (confidence 2) [0B39114C] (AR v2)
Track 14 accurately ripped (confidence 2) [4FA90157] (AR v2)
Track 15 accurately ripped (confidence 2) [B91B507D] (AR v2)
Track 16 accurately ripped (confidence 2) [783FD593] (AR v2)
Track 17 accurately ripped (confidence 2) [59D02CAB] (AR v2)
Track 18 accurately ripped (confidence 2) [7B12F9F0] (AR v2)
Track 19 accurately ripped (confidence 2) [BF8A0CC9] (AR v2)
Track 20 accurately ripped (confidence 2) [0E2E90A1] (AR v2)
All tracks accurately ripped
End of status report
==== Log checksum 1BD7F8F76B46AC9530C85928290DCE32B76E80FD5B9D9FBBE8281FE6A302F3CC ====



Показать сообщения:    

Текущее время: 07-Дек 11:38

Часовой пояс: UTC + 3


Вы не можете начинать темы
Вы не можете отвечать на сообщения
Вы не можете редактировать свои сообщения
Вы не можете удалять свои сообщения
Вы не можете голосовать в опросах
Вы не можете прикреплять файлы к сообщениям
Вы не можете скачивать файлы