(Opera) Ibert – Angelique (Mechaly, Caruso, Masson, Tramonti, Cosotti - Orchestra E Coro Dell'Ente Autonomo Teatro Massimo Di Palermo, David) - 2000, APE (image+.cue) lossless


 

[Цитировать]

Jacques Ibert – Angélique
Жанр: Opera
Страна-производитель диска: Germany
Год издания диска: 2000
Издатель (лейбл): Hommage
Номер по каталогу: 7001833-HOM
Дата записи: 1996
Аудиокодек: APE
Тип рипа: image+.cue
Битрейт аудио: lossless
Продолжительность: 42'37
Источник: собственный рип
Наличие сканов в содержимом раздачи: да
Треклист:
1. Introduction
Scène I - II - III - IV - V - VI
2. "Ah! L'Horrible Mégère Qui Vous Brise À La Fois Et Tympan!"
3. "Elle Dit Comme Ça Qu'Il Aurait Tué Son Père"
4. "Ah! La! La!... Mon Pauvre Boniface"
5. "Pauvre Madame Boniface!"
Scène VII
6. "Questa Voce!... Una Maraviglia!..."
7. "Là-Bas, En Italie!"
Scène VIII - IX - X
8. "Voilà Ce Qui S'Appelle Arriver Commes Les Carabiniers"
9. "Pauvre Madame Boniface !"
Scène XI
10. "Par Ici! Milord, Par Ici! W L'Aviation!"
Scène XII
11. "Prenez Un Air Pudique Et Tendre"
Scène XIII - XIV - XV - XVI
12. "Elle Est Partie?..."
13. "Pauvre Monsieur Boniface!"
Scène XVII
14. Le Nègre
Scène XVIII - XIX - XX - XXI - XXII - XXIII
15. "Qu'Est-Ce Que Vous Voulez?"
Scène XXIV
16. "Je T'Offre Pour Tes Noces, Au Nom De Ma Tribu, Quatre Rhinocéros"
Scène XXV - XXVI - XXVII - XXVIII
17. "Là Maintenant, De L'Air, De L'Air!"
Scène XXIX - XXX
18. "Eccolo! Brigante! La Mia Moneta!"
Scène XXXI
19. "Boniface! Reprends Ta Femme!"
Исполнители:
Jacques Ibert – Angélique
Farce en un Acte
Libretto di Nino
Angélique – Gaelle Mechaly, soprano
Boniface – Carmelo Caruso, tenor
Charlot – Luis Masson, bariton
Première Commère – Patrizia Orciani, soprano
Deucième Commère – Tiziana Tramonti, mezzo-soprano
L'anglais – Max René Cosotti, tenor
L'italien – Bruce Fowler, tenor
Le Diable – Renzo Casellato, tenor
Le Nègre – George Hawkins, bass
Orchestra E Coro Dell'Ente Autonomo Teatro Massimo Di Palermo
Yoram David

Лог создания рипа

Exact Audio Copy V1.0 beta 3 from 29. August 2011
EAC extraction logfile from 4. May 2015, 16:24
Ibert / Angelique, David
Used drive : TS8XDVDSTRANSCEND Adapter: 1 ID: 1
Read mode : Secure
Utilize accurate stream : Yes
Defeat audio cache : Yes
Make use of C2 pointers : No
Read offset correction : 6
Overread into Lead-In and Lead-Out : No
Fill up missing offset samples with silence : Yes
Delete leading and trailing silent blocks : No
Null samples used in CRC calculations : Yes
Used interface : Native Win32 interface for Win NT & 2000
Used output format : Monkey's Audio Lossless Encoder
Selected bitrate : High Lossless Compression
Quality : High
Add ID3 tag : Yes
Command line compressor : C:\Program Files (x86)\Exact Audio Copy\MAC\MAC.exe
TOC of the extracted CD
Track | Start | Length | Start sector | End sector
---------------------------------------------------------
1 | 0:00.00 | 0:32.72 | 0 | 2471
2 | 0:32.72 | 1:31.45 | 2472 | 9341
3 | 2:04.42 | 0:49.15 | 9342 | 13031
4 | 2:53.57 | 5:59.35 | 13032 | 39991
5 | 8:53.17 | 0:35.13 | 39992 | 42629
6 | 9:28.30 | 3:46.50 | 42630 | 59629
7 | 13:15.05 | 2:45.47 | 59630 | 72051
8 | 16:00.52 | 2:29.25 | 72052 | 83251
9 | 18:30.02 | 0:34.25 | 83252 | 85826
10 | 19:04.27 | 1:11.35 | 85827 | 91186
11 | 20:15.62 | 3:17.53 | 91187 | 106014
12 | 23:33.40 | 2:26.50 | 106015 | 117014
13 | 26:00.15 | 0:35.15 | 117015 | 119654
14 | 26:35.30 | 1:48.35 | 119655 | 127789
15 | 28:23.65 | 4:20.17 | 127790 | 147306
16 | 32:44.07 | 1:43.45 | 147307 | 155076
17 | 34:27.52 | 2:21.40 | 155077 | 165691
18 | 36:49.17 | 2:26.18 | 165692 | 176659
19 | 39:15.35 | 3:18.70 | 176660 | 191579
Range status and errors
Selected range
Filename D:\EAC\Ibert - Angelique, David.wav
Peak level 86.5 %
Extraction speed 2.7 X
Range quality 99.9 %
Test CRC 2A6524AE
Copy CRC 2A6524AE
Copy OK
No errors occurred
AccurateRip summary
Track 1 accurately ripped (confidence 3) [AA16CFFA] (AR v1)
Track 2 accurately ripped (confidence 3) [9F4D9926] (AR v1)
Track 3 accurately ripped (confidence 3) [8FEC177B] (AR v1)
Track 4 accurately ripped (confidence 3) [B47DFBA8] (AR v1)
Track 5 accurately ripped (confidence 3) [F3946904] (AR v1)
Track 6 accurately ripped (confidence 3) [E961F9C5] (AR v1)
Track 7 accurately ripped (confidence 3) [A7244F9E] (AR v1)
Track 8 accurately ripped (confidence 3) [311F599F] (AR v1)
Track 9 accurately ripped (confidence 3) [F2938AB1] (AR v1)
Track 10 accurately ripped (confidence 3) [CD0C4ECC] (AR v1)
Track 11 accurately ripped (confidence 3) [67171B36] (AR v1)
Track 12 accurately ripped (confidence 3) [7F517401] (AR v1)
Track 13 accurately ripped (confidence 3) [BBE92A05] (AR v1)
Track 14 accurately ripped (confidence 3) [89CC08C7] (AR v1)
Track 15 accurately ripped (confidence 3) [BD2AC142] (AR v1)
Track 16 accurately ripped (confidence 3) [919B4324] (AR v1)
Track 17 accurately ripped (confidence 3) [ECA5EADF] (AR v1)
Track 18 accurately ripped (confidence 3) [52DD1A4D] (AR v1)
Track 19 accurately ripped (confidence 3) [ADBEAE99] (AR v1)
All tracks accurately ripped
End of status report
---- CUETools DB Plugin V2.1.3
[CTDB TOCID: 0.Y6QSOMZdQKBE6LWcFkdZzmOOo-] found, Submit result: unrecognized or virtual drive
[41102194] (1/1) Accurately ripped
==== Log checksum 1D9E8A68509A85184074B09D5B411FED470BB61DA18CFB686E83745611BEA19D ====

Содержание индексной карты (.CUE)

REM GENRE Opera
REM DATE 1996
REM DISCID F609FA13
REM COMMENT "ExactAudioCopy v1.0b3"
PERFORMER "Ibert"
TITLE "Angelique, David"
FILE "Ibert - Angelique, David.ape" WAVE
TRACK 01 AUDIO
TITLE "Introduction"
PERFORMER "Ibert"
INDEX 01 00:00:00
TRACK 02 AUDIO
TITLE "Scene 01-06 - Ah! L'horrible mégère qui vous brise à la fois porcelaine et ty..."
PERFORMER "Ibert"
INDEX 01 00:32:72
TRACK 03 AUDIO
TITLE "Scene 01-06 - Elle dit comme ça qu'il aurait tué son père..."
PERFORMER "Ibert"
INDEX 01 02:04:42
TRACK 04 AUDIO
TITLE "Scene 01-06 - Ah! La! La!...Mon pauvre Boniface"
PERFORMER "Ibert"
INDEX 01 02:53:57
TRACK 05 AUDIO
TITLE "Scene 01-06 - Pauvre Madame Boniface!"
PERFORMER "Ibert"
INDEX 01 08:53:17
TRACK 06 AUDIO
TITLE "Scene 07 - Questa voce!...Una maraviglia!..."
PERFORMER "Ibert"
INDEX 01 09:28:30
TRACK 07 AUDIO
TITLE "Scene 07 - Là-bas, en Italie!"
PERFORMER "Ibert"
INDEX 01 13:15:05
TRACK 08 AUDIO
TITLE "Scene 08-10 - Voilà ce qui s'appelle arriver commes le carabiniers"
PERFORMER "Ibert"
INDEX 01 16:00:52
TRACK 09 AUDIO
TITLE "Scene 08-10 - Pauvre Madame Boniface!"
PERFORMER "Ibert"
INDEX 01 18:30:02
TRACK 10 AUDIO
TITLE "Scene 11 - Par ici! Milord, par ici! W l'aviation!"
PERFORMER "Ibert"
INDEX 01 19:04:27
TRACK 11 AUDIO
TITLE "Scene 12 - Prenez un air pudique et tendre"
PERFORMER "Ibert"
INDEX 01 20:15:62
TRACK 12 AUDIO
TITLE "Scene 13-16 - Elle est partie?"
PERFORMER "Ibert"
INDEX 01 23:33:40
TRACK 13 AUDIO
TITLE "Scene 13-16 - Pauvre Monsieur Boniface!"
PERFORMER "Ibert"
INDEX 01 26:00:15
TRACK 14 AUDIO
TITLE "Scene 17 - Le Nègre"
PERFORMER "Ibert"
INDEX 01 26:35:30
TRACK 15 AUDIO
TITLE "Scene 18-23 - Qu'est-ce que vous voulez?"
PERFORMER "Ibert"
INDEX 01 28:23:65
TRACK 16 AUDIO
TITLE "Scene 24 - Je t'offre pour tes noces, aunom de ma tribu, quatre rhinocéros"
PERFORMER "Ibert"
INDEX 01 32:44:07
TRACK 17 AUDIO
TITLE "Scene 25-28 - Là maintenant, de l'air, de l'air!"
PERFORMER "Ibert"
INDEX 01 34:27:52
TRACK 18 AUDIO
TITLE "Scene 29-30 - Eccolo! Brigante! La mia moneta!"
PERFORMER "Ibert"
INDEX 01 36:49:17
TRACK 19 AUDIO
TITLE "Scene 31 - Boniface! Reprends ta femme!"
PERFORMER "Ibert"
INDEX 01 39:15:35



Показать сообщения:    

Текущее время: 04-Дек 21:25

Часовой пояс: UTC + 3


Вы не можете начинать темы
Вы не можете отвечать на сообщения
Вы не можете редактировать свои сообщения
Вы не можете удалять свои сообщения
Вы не можете голосовать в опросах
Вы не можете прикреплять файлы к сообщениям
Вы не можете скачивать файлы