Страх съедает душу / Angst essen Seele auf / Ali: Fear Eats the Soul (Райнер Вернер Фассбиндер / Rainer Werner Fassbinder) [1974, Германия, Драма, BDRip] MVO (НТВ+) + AVO (Сербин) + Original (Ger) + Sub (Rus, Eng)


 

[Цитировать]

Страх съедает душу / Angst essen Seele auf / Ali: Fear Eats the Soul- Год выпуска: 1974
Выпущено: Германия (ФРГ) / Filmverlag der Autoren
Жанр: драма
Продолжительность: 01:33:22
Перевод (1): Профессиональный (многоголосый закадровый) НТВ+
Перевод (2): Авторский (одноголосый закадровый) Юрий Сербин
Cубтитры: Русские, Английские (внешние .srt)
Оригинальная аудиодорожка: Немецкая-Режиссер:
Райнер Вернер Фассбиндер / Rainer Werner Fassbinder-В ролях:
Бригитте Мира (Emmi), Эль Хеди Бен Салем (Ali), Барбара Валентин (Barbara), Ирм Херманн (Krista), Эльма Карлова (Mrs. Kargus), Анита Бухер (Mrs. Ellis), Густи Крайссль (Paula), Дорис Маттес (Mrs. Angermeyer), Маргит Шимо (Hedwig), Катарина Ерберг (Girl in bar), Лило Пемпайт (Mrs. Münchmeyer)-Описание:
Что делать, если шестидесятилетнюю немецкую вдову привлекает марокканец, лет на тридцать моложе ее? А если это любовь? А может, просто «встретились два одиночества»?-IMDB | КиноПоиск | Сэмпл |-Качество: BDRip [Blu-ray Disc | 1080p | HDCLUB]
Формат: AVI
Видео: 704x512 (1.38:1), 23.976 fps, XviD build 73 ~1829 kbps avg, 0.21 bit/pixel
Аудио #1: 48 kHz, AC3 Dolby Digital, 2/0 (L,R) ch, ~192.00 kbps avg (MVO) НТВ+
Аудио #2: 48 kHz, AC3 Dolby Digital, 1/0 (C) ch, ~96.00 kbps avg (AVO) Юрий Сербин
Аудио #3: 48 kHz, AC3 Dolby Digital, 1/0 (C) ch, ~96.00 kbps avg (GER)
-

Скриншоты

MediaInfo

General
Complete name                            : D:Strah_c`edaet_dushu_1974_BDRip_by_Dalemake.avi
Format                                   : AVI
Format/Info                              : Audio Video Interleave
File size                                : 1.46 GiB
Duration                                 : 1h 33mn
Overall bit rate                         : 2 234 Kbps
Writing application                      : VirtualDubMod 1.5.10.3 | www.virtualdub-fr.org || (build 2550/release)
Writing library                          : VirtualDubMod build 2550/release
[br]
Video
ID                                       : 0
Format                                   : MPEG-4 Visual
Format profile                           : Advanced Simple@L5
Format settings, BVOP                    : 1
Format settings, QPel                    : No
Format settings, GMC                     : No warppoints
Format settings, Matrix                  : Custom
Codec ID                                 : XVID
Codec ID/Hint                            : XviD
Duration                                 : 1h 33mn
Bit rate                                 : 1 831 Kbps
Width                                    : 704 pixels
Height                                   : 512 pixels
Display aspect ratio                     : 1.375
Frame rate                               : 23.976 fps
Color space                              : YUV
Chroma subsampling                       : 4:2:0
Bit depth                                : 8 bits
Scan type                                : Progressive
Compression mode                         : Lossy
Bits/(Pixel*Frame)                       : 0.212
Stream size                              : 1.19 GiB (82%)
Writing library                          : XviD 73
[br]
Audio #1
ID                                       : 1
Format                                   : AC-3
Format/Info                              : Audio Coding 3
Mode extension                           : CM (complete main)
Format settings, Endianness              : Big
Codec ID                                 : 2000
Duration                                 : 1h 33mn
Bit rate mode                            : Constant
Bit rate                                 : 192 Kbps
Channel(s)                               : 2 channels
Channel positions                        : Front: L R
Sampling rate                            : 48.0 KHz
Bit depth                                : 16 bits
Compression mode                         : Lossy
Stream size                              : 128 MiB (9%)
Alignment                                : Split accross interleaves
Interleave, duration                     : 42 ms (1.00 video frame)
Interleave, preload duration             : 500 ms
[br]
Audio #2
ID                                       : 2
Format                                   : AC-3
Format/Info                              : Audio Coding 3
Mode extension                           : CM (complete main)
Format settings, Endianness              : Big
Codec ID                                 : 2000
Duration                                 : 1h 33mn
Bit rate mode                            : Constant
Bit rate                                 : 96.0 Kbps
Channel(s)                               : 1 channel
Channel positions                        : Front: C
Sampling rate                            : 48.0 KHz
Bit depth                                : 16 bits
Compression mode                         : Lossy
Stream size                              : 64.1 MiB (4%)
Alignment                                : Split accross interleaves
Interleave, duration                     : 42 ms (1.00 video frame)
Interleave, preload duration             : 500 ms
[br]
Audio #3
ID                                       : 3
Format                                   : AC-3
Format/Info                              : Audio Coding 3
Mode extension                           : CM (complete main)
Format settings, Endianness              : Big
Codec ID                                 : 2000
Duration                                 : 1h 33mn
Bit rate mode                            : Constant
Bit rate                                 : 96.0 Kbps
Channel(s)                               : 1 channel
Channel positions                        : Front: C
Sampling rate                            : 48.0 KHz
Bit depth                                : 16 bits
Compression mode                         : Lossy
Stream size                              : 64.1 MiB (4%)
-Цитата:
Перевод Юрия Сербина выполнен в рамках сервиса "Озвучивание". Спонсоры - HDCLUB: Kator, nekazz, xerman13, Luka69, joshua123, whip93, E180.RU: luka69, xerman13, kabukiman, chontvari, foxlight, denis_mgn_1987, Stalk.
-



Показать сообщения:    

Текущее время: 09-Дек 20:32

Часовой пояс: UTC + 3


Вы не можете начинать темы
Вы не можете отвечать на сообщения
Вы не можете редактировать свои сообщения
Вы не можете удалять свои сообщения
Вы не можете голосовать в опросах
Вы не можете прикреплять файлы к сообщениям
Вы не можете скачивать файлы