The Wrecking Crew (Денни Тедеско / Denny Tedesco) [2008, Док.фильм, SATRip]


Статистика раздачи [Обновить пиров]
Размер:  703 MB   |    Зарегистрирован:  8 месяцев 21 день   |    Скачан:  0 раз

Полного источника не было: Никогда

 
   
 
 
 

[Цитировать]

Wrecking Crew, The
Дата/Год выпуска: 2008(вышел на экраны в 2015 году)
Страна: США
Жанр: Док.фильм
Продолжительность: 01:37:40
Перевод: Субтитры
Русские субтитры: есть
Формат субтитров: hardsub (неотключаемые)
Оригинальная аудиодорожка: английский
Режиссер: Денни Тедеско / Denny Tedesco
Описание: Документальный фильм о легендарной студийной группе The Wrecking Crew, с которой записывали свои хиты многие знаменитые исполнители. Одним из участников группы был Томми Тедеско - отец режиссера

SATRip от : Твид
Доп. информация: Любезно предоставлено клубом Fenix
Сэмпл: http://multi-up.com/1058224
качество: SATRip
формат: AVI
Видео: XviD, 872 kb/s, 704x528, 25 fps, 0.094 bits/pixel
Аудио: 0x0055(MP3) ID'd as MPEG-1 Layer 3, 128 kb/s (2/ch, stereo) CBR, 48000 Hz - Английский

MediaInfo

Общее
Полное имя : D:\Fillms-1\The Wrecking Crew.SAT-rip.by.Твид.fenixclub.avi
Формат : AVI
Формат/Информация : Audio Video Interleave
Размер файла : 703 Мбайт
Продолжительность : 1 ч. 37 м.
Общий поток : 1007 Кбит/сек
Программа кодирования : VirtualDubMod 1.5.10.2 (build 2540/release)
Библиотека кодирования : VirtualDub build 30009/release
Видео
Идентификатор : 0
Формат : MPEG-4 Visual
Профиль формата : Simple@L3
Параметр BVOP формата : 2
Параметр QPel формата : Нет
Параметр GMC формата : Без точки перехода
Параметр матрицы формата : Default (H.263)
Идентификатор кодека : XVID
Идентификатор кодека/Подсказка : XviD
Продолжительность : 1 ч. 37 м.
Битрейт : 869 Кбит/сек
Ширина : 704 пикселя
Высота : 528 пикселей
Соотношение сторон : 4:3
Частота кадров : 25,000 кадров/сек
Цветовое пространство : YUV
Субдискретизация насыщенности : 4:2:0
Битовая глубина : 8 бит
Тип развёртки : Прогрессивная
Метод сжатия : С потерями
Бит/(Пиксели*Кадры) : 0.093
Размер потока : 607 Мбайт (86%)
Библиотека кодирования : XviD 1.0.0 RC4 (Hola) (UTC 2004-04-05)
Аудио
Идентификатор : 1
Формат : MPEG Audio
Версия формата : Version 1
Профиль формата : Layer 3
Режим : Joint stereo
Расширение режима : MS Stereo
Идентификатор кодека : 55
Идентификатор кодека/Подсказка : MP3
Продолжительность : 1 ч. 37 м.
Вид битрейта : Постоянный
Битрейт : 128 Кбит/сек
Каналы : 2 канала
Частота : 48,0 КГц
Метод сжатия : С потерями
Размер потока : 89,4 Мбайт (13%)
Выравнивание : Разделение по промежуткам
Продолжительность промежутка : 40 мс. (1,00 видеокадр)
Время предзагрузки промежутка : 500 мс.

Скриншоты

[teatrix.ru].t21737.torrent 
Торрент: Зарегистрирован [ 2016-03-20 12:54 ] · ED6D0352EDA0242E0EF05A899616373B818FCCBF

Скачать .torrent

Скачать

14 KB

Статус: проверено
Скачан: 0 раз
Размер: 703 MB
terms.php



Быстрый ответ

Имя:

      
Для отправки сообщений необходимо включить JavaScript
Показать сообщения:    

Текущее время: 11-Дек 07:12

Часовой пояс: UTC + 3


Вы можете начинать темы
Вы можете отвечать на сообщения
Вы не можете редактировать свои сообщения
Вы не можете удалять свои сообщения
Вы не можете голосовать в опросах
Вы не можете прикреплять файлы к сообщениям
Вы можете скачивать файлы