(Classical, period) Дюссек – Фортепианная соната № 24; дуэты с арфой / Dussek – «Grand desserts»: Piano sonata No. 24; harp sonata & duets (Masumi Nagasawa & Richard Egarr) - 2004, FLAC (tracks+.cue) lossless


 

[Цитировать]

Дюссек – Фортепианная соната № 24; дуэты с арфой / Dussek – «Grand desserts»: Piano sonata No. 24; harp sonata & duets (Masumi Nagasawa & Richard Egarr)
Жанр: Classical, period
Страна-производитель диска: Бельгия
Год издания диска: 2004
Издатель (лейбл): etcetera (Soirées de Goût)
Номер по каталогу: KTC 1270
Дата записи: январь 2004 г., Гарлем.
Аудиокодек: FLAC
Тип рипа: tracks+.cue
Битрейт аудио: lossless
Продолжительность: 01:18:20
Источник: duckjammy на MIMC
Наличие сканов в содержимом раздачи: да
Треклист:-Ян Ладислав Дюссек (1760 — 1812).-Дуэт для арфы и фортепиано Es-dur, op. 38 / 36, C. 170 (1799).
01. I. Allegro [07:23].
02. II. Adagio espressivo [02:36].
03. III. Rondo. Allegretto [03:12].
Фортепианная соната № 24 fis-moll «Гармоническая элегия на смерть Луи Фердинанда», op. 61, C. 211 (1806 — 1807).
04. I. Lento patetico. — Tempo agitato [11:26].
05. II. Tempo vivace e con fuoco, quasi presto [06:49].
Дуэттино для арфы и фортепиано F-dur, C. 190 (ок. 1802).
06. I. Moderato [02:49].
07. II. Rondo. Allegro [01:54].
Две сонаты для фортепиано в сопровождении скрипки и виолончели, op. 34 (1797): Соната № 1 Es-dur, C. 147, версия для арфы соло.
08. I. Allegro brillante [08:56].
09. II. Andantino piuttosto larghetto [05:08].
10. III. Rondo. Allegretto moderato [04:20].
Концертный дуэт для арфы и фортепиано B-dur, op. 69 № 1 / op. 74, C. 234 (1810).
11. I. Allegro con fuoco [09:27].
12. II. Траурный марш. Andante moderato [06:21].
13. III. Menuetto. Tempo di ballo quasi andante [06:53].-Исполнители:
Masumi Nagasawa (арфа, 1815).
Richard Egarr (fortepiano, 1804).-

Лог создания рипа

Exact Audio Copy V1.0 beta 3 from 29. August 2011
EAC extraction logfile from 6. June 2013, 7:20
Masumi Nagasawa / Grand Desserts- The World of Jan Ladislav Dussek
Used drive : PLDS BD-RE DH-8B2SH Adapter: 0 ID: 0
Read mode : Secure
Utilize accurate stream : Yes
Defeat audio cache : Yes
Make use of C2 pointers : No
Read offset correction : 6
Overread into Lead-In and Lead-Out : No
Fill up missing offset samples with silence : Yes
Delete leading and trailing silent blocks : No
Null samples used in CRC calculations : Yes
Used interface : Native Win32 interface for Win NT & 2000
Gap handling : Not detected, thus appended to previous track
Used output format : User Defined Encoder
Selected bitrate : 768 kBit/s
Quality : High
Add ID3 tag : No
Command line compressor : C:\Program Files (x86)\Exact Audio Copy\FLAC\FLAC.EXE
Additional command line options : -6 -V -T "ARTIST=%artist%" -T "TITLE=%title%" -T "ALBUM=%albumtitle%" -T "DATE=%year%" -T "TRACKNUMBER=%tracknr%" -T "GENRE=%genre%" -T "COMMENT=%comment%" -T "BAND=%albuminterpret%" -T "ALBUMARTIST=%albuminterpret%" -T "COMPOSER=%composer%" %haslyrics%--tag-from-file=LYRICS="%lyricsfile%"%haslyrics% -T "DISCNUMBER=%cdnumber%" -T "TOTALDISCS=%totalcds%" -T "TOTALTRACKS=%numtracks%" %hascover%--picture="%coverfile%"%hascover% %source% -o %dest%
TOC of the extracted CD
Track | Start | Length | Start sector | End sector
---------------------------------------------------------
1 | 0:00.00 | 7:26.37 | 0 | 33486
2 | 7:26.37 | 2:36.58 | 33487 | 45244
3 | 10:03.20 | 3:22.45 | 45245 | 60439
4 | 13:25.65 | 11:30.52 | 60440 | 112241
5 | 24:56.42 | 7:00.13 | 112242 | 143754
6 | 31:56.55 | 2:49.02 | 143755 | 156431
7 | 34:45.57 | 2:03.28 | 156432 | 165684
8 | 36:49.10 | 9:01.17 | 165685 | 206276
9 | 45:50.27 | 5:12.25 | 206277 | 229701
10 | 51:02.52 | 4:30.30 | 229702 | 249981
11 | 55:33.07 | 9:31.65 | 249982 | 292871
12 | 65:04.72 | 6:22.65 | 292872 | 321586
13 | 71:27.62 | 6:52.50 | 321587 | 352536
Track 1
Filename C:\EAC\01 Duet for the harp and pianoforte in E flat major op 38 ; Allegro.wav
Peak level 98.7 %
Extraction speed 4.9 X
Track quality 99.9 %
Test CRC F98B5A43
Copy CRC F98B5A43
Track not present in AccurateRip database
Copy OK
Track 2
Filename C:\EAC\02 Duet for the harp and pianoforte in E flat major op 38 ; Adagio espressivo.wav
Peak level 28.8 %
Extraction speed 5.3 X
Track quality 100.0 %
Test CRC 9729C50E
Copy CRC 9729C50E
Track not present in AccurateRip database
Copy OK
Track 3
Filename C:\EAC\03 Duet for the harp and pianoforte in E flat major op 38 ; Rondo, allegretto.wav
Peak level 98.4 %
Extraction speed 5.8 X
Track quality 100.0 %
Test CRC B2807C5D
Copy CRC B2807C5D
Track not present in AccurateRip database
Copy OK
Track 4
Filename C:\EAC\04 Sonata 24 pianoforte solo in f sharp minor op 61 ; Lento patetico, tempo agitato.wav
Peak level 94.3 %
Extraction speed 7.3 X
Track quality 100.0 %
Test CRC 7638F700
Copy CRC 7638F700
Track not present in AccurateRip database
Copy OK
Track 5
Filename C:\EAC\05 Sonata 24 pianoforte solo in f sharp minor op 61 ; Tempo vivace e con fuoco quasi presto.wav
Peak level 81.8 %
Extraction speed 7.8 X
Track quality 100.0 %
Test CRC 1F2B6255
Copy CRC 1F2B6255
Track not present in AccurateRip database
Copy OK
Track 6
Filename C:\EAC\06 Duettino II for the harp and pianoforte in F major ; Moderato.wav
Peak level 75.4 %
Extraction speed 7.3 X
Track quality 100.0 %
Test CRC 208A8523
Copy CRC 208A8523
Track not present in AccurateRip database
Copy OK
Track 7
Filename C:\EAC\07 Duettino II for the harp and pianoforte in F major ; Rondo, allegro.wav
Peak level 98.1 %
Extraction speed 7.0 X
Track quality 100.0 %
Test CRC 013DBD2B
Copy CRC 013DBD2B
Track not present in AccurateRip database
Copy OK
Track 8
Filename C:\EAC\08 Sonata I for harp solo in E flat major op 34 ; Allegro brillante.wav
Peak level 84.0 %
Extraction speed 8.9 X
Track quality 100.0 %
Test CRC CCCAC608
Copy CRC CCCAC608
Track not present in AccurateRip database
Copy OK
Track 9
Filename C:\EAC\09 Sonata I for harp solo in E flat major op 34 ; Andantino piustosto larghetto.wav
Peak level 68.2 %
Extraction speed 9.0 X
Track quality 100.0 %
Test CRC 6BC5FA44
Copy CRC 6BC5FA44
Track not present in AccurateRip database
Copy OK
Track 10
Filename C:\EAC\10 Sonata I for harp solo in E flat major op 34 ; Rondo, allegretto moderato.wav
Peak level 64.5 %
Extraction speed 9.1 X
Track quality 100.0 %
Test CRC D027F82F
Copy CRC D027F82F
Track not present in AccurateRip database
Copy OK
Track 11
Filename C:\EAC\11 Duo concertant for the harp and pianoforte in B flat major op 69 no 1 ; Allegro confuoco.wav
Peak level 98.8 %
Extraction speed 10.1 X
Track quality 100.0 %
Test CRC DEC86BEE
Copy CRC DEC86BEE
Track not present in AccurateRip database
Copy OK
Track 12
Filename C:\EAC\12 Duo concertant for the harp and pianoforte in B flat major op 69 no 1 ; Andante moderato, marche funebre.wav
Peak level 98.1 %
Extraction speed 10.3 X
Track quality 100.0 %
Test CRC 8497540C
Copy CRC 8497540C
Track not present in AccurateRip database
Copy OK
Track 13
Filename C:\EAC\13 Duo concertant for the harp and pianoforte in B flat major op 69 no 1 ; Minuetto, tempo di ballo quasi andante.wav
Peak level 98.3 %
Extraction speed 9.4 X
Track quality 99.9 %
Test CRC C80FA8EB
Copy CRC C80FA8EB
Track not present in AccurateRip database
Copy OK
None of the tracks are present in the AccurateRip database
No errors occurred
End of status report
==== Log checksum 60F6EB740E8CAB4D3048ED6EB70699CBFB2BB5CD6AF19C396E964EAC737208F2 ====

Содержание индексной карты (.CUE)

REM GENRE "Chamber Music"
REM DATE 2004
REM DISCID C0125C0D
REM COMMENT "ExactAudioCopy v1.0b3"
PERFORMER "Masumi Nagasawa & Richard Egarr"
TITLE "Grand Desserts- The World of Jan Ladislav Dussek"
FILE "01 - Duet for the harp and pianoforte in E flat major, Op. 38 - I. (Allegro).flac" WAVE
TRACK 01 AUDIO
TITLE "Duet for the harp and pianoforte in E flat major, Op. 38 - I. (Allegro)"
PERFORMER "Masumi Nagasawa & Richard Egarr"
INDEX 01 00:00:00
FILE "02 - Duet for the harp and pianoforte in E flat major, Op. 38 - II. Adagio espressivo.flac" WAVE
TRACK 02 AUDIO
TITLE "Duet for the harp and pianoforte in E flat major, Op. 38 - II. Adagio espressivo"
PERFORMER "Masumi Nagasawa & Richard Egarr"
INDEX 01 00:00:00
FILE "03 - Duet for the harp and pianoforte in E flat major, Op. 38 - III. Rondo. Allegretto.flac" WAVE
TRACK 03 AUDIO
TITLE "Duet for the harp and pianoforte in E flat major, Op. 38 - III. Rondo. Allegretto"
PERFORMER "Masumi Nagasawa & Richard Egarr"
INDEX 01 00:00:00
FILE "04 - Piano sonata No. 24 in F sharp minor, Op. 61 - I. Lento patetico - Tempo agitato.flac" WAVE
TRACK 04 AUDIO
TITLE "Piano sonata No. 24 in F sharp minor, Op. 61 - I. Lento patetico - Tempo agitato"
PERFORMER "Masumi Nagasawa & Richard Egarr"
INDEX 01 00:00:00
FILE "05 - Piano sonata No. 24 in F sharp minor, Op. 61 - II. Tempo vivace e con fuoco quasi presto.flac" WAVE
TRACK 05 AUDIO
TITLE "Piano sonata No. 24 in F sharp minor, Op. 61 - II. Tempo vivace e con fuoco quasi presto"
PERFORMER "Masumi Nagasawa & Richard Egarr"
INDEX 01 00:00:00
FILE "06 - Duettino II for the harp and pianoforte in F major , C. 190 - I. Moderato.flac" WAVE
TRACK 06 AUDIO
TITLE "Duettino II for the harp and pianoforte in F major , C. 190 - I. Moderato"
PERFORMER "Masumi Nagasawa & Richard Egarr"
INDEX 01 00:00:00
FILE "07 - Duettino II for the harp and pianoforte in F major , C. 190 - II. Rondo. Allegro.flac" WAVE
TRACK 07 AUDIO
TITLE "Duettino II for the harp and pianoforte in F major , C. 190 - II. Rondo. Allegro"
PERFORMER "Masumi Nagasawa & Richard Egarr"
INDEX 01 00:00:00
FILE "08 - Sonata for harp solo in E flat major, Op. 34 no. 1 - I. Allegro brillante.flac" WAVE
TRACK 08 AUDIO
TITLE "Sonata for harp solo in E flat major, Op. 34 no. 1 - I. Allegro brillante"
PERFORMER "Masumi Nagasawa & Richard Egarr"
INDEX 01 00:00:00
FILE "09 - Sonata for harp solo in E flat major, Op. 34 no. 1 - II. Andantino piuttosto larghetto.flac" WAVE
TRACK 09 AUDIO
TITLE "Sonata for harp solo in E flat major, Op. 34 no. 1 - II. Andantino piuttosto larghetto"
PERFORMER "Masumi Nagasawa & Richard Egarr"
INDEX 01 00:00:00
FILE "10 - Sonata for harp solo in E flat major, Op. 34 no. 1 - III. Rondo. Allegretto moderato.flac" WAVE
TRACK 10 AUDIO
TITLE "Sonata for harp solo in E flat major, Op. 34 no. 1 - III. Rondo. Allegretto moderato"
PERFORMER "Masumi Nagasawa & Richard Egarr"
INDEX 01 00:00:00
FILE "11 - Duo concertant for the harp and pianoforte in B flat major, Op. 69 no. 1 - I. Allegro con fuoco.flac" WAVE
TRACK 11 AUDIO
TITLE "Duo concertant for the harp and pianoforte in B flat major, Op. 69 no. 1 - I. Allegro con fuoco"
PERFORMER "Masumi Nagasawa & Richard Egarr"
INDEX 01 00:00:00
FILE "12 - Duo concertant for the harp and pianoforte in B flat major, Op. 69 no. 1 - II. Marche funebre. Andante moderato.flac" WAVE
TRACK 12 AUDIO
TITLE "Duo concertant for the harp and pianoforte in B flat major, Op. 69 no. 1 - II. Marche funebre. Andante moderato"
PERFORMER "Masumi Nagasawa & Richard Egarr"
INDEX 01 00:00:00
FILE "13 - Duo concertant for the harp and pianoforte in B flat major, Op. 69 no. 1 - III. Minuetto. Tempo di ballo quasi andante.flac" WAVE
TRACK 13 AUDIO
TITLE "Duo concertant for the harp and pianoforte in B flat major, Op. 69 no. 1 - III. Minuetto. Tempo di ballo quasi andante"
PERFORMER "Masumi Nagasawa & Richard Egarr"
INDEX 01 00:00:00

Вариант индексной карты (.CUE) с выставленными зазорами

REM GENRE "Chamber Music"
REM DATE 2004
REM DISCID C0125C0D
REM COMMENT "ExactAudioCopy v1.0b3"
PERFORMER "Masumi Nagasawa & Richard Egarr"
TITLE "Grand Desserts- The World of Jan Ladislav Dussek"
FILE "01 - Duet for the harp and pianoforte in E flat major, Op. 38 - I. (Allegro).flac" WAVE
TRACK 01 AUDIO
TITLE "Duet for the harp and pianoforte in E flat major, Op. 38 - I. (Allegro)"
PERFORMER "Masumi Nagasawa & Richard Egarr"
INDEX 00 00:00:00
INDEX 01 00:02:26
TRACK 02 AUDIO
INDEX 00 07:22:72
FILE "02 - Duet for the harp and pianoforte in E flat major, Op. 38 - II. Adagio espressivo.flac" WAVE
TITLE "Duet for the harp and pianoforte in E flat major, Op. 38 - II. Adagio espressivo"
PERFORMER "Masumi Nagasawa & Richard Egarr"
INDEX 01 00:00:00
FILE "03 - Duet for the harp and pianoforte in E flat major, Op. 38 - III. Rondo. Allegretto.flac" WAVE
TRACK 03 AUDIO
TITLE "Duet for the harp and pianoforte in E flat major, Op. 38 - III. Rondo. Allegretto"
PERFORMER "Masumi Nagasawa & Richard Egarr"
INDEX 01 00:00:00
TRACK 04 AUDIO
INDEX 00 03:12:45
FILE "04 - Piano sonata No. 24 in F sharp minor, Op. 61 - I. Lento patetico - Tempo agitato.flac" WAVE
TITLE "Piano sonata No. 24 in F sharp minor, Op. 61 - I. Lento patetico - Tempo agitato"
PERFORMER "Masumi Nagasawa & Richard Egarr"
INDEX 01 00:00:00
TRACK 05 AUDIO
INDEX 00 11:28:13
FILE "05 - Piano sonata No. 24 in F sharp minor, Op. 61 - II. Tempo vivace e con fuoco quasi presto.flac" WAVE
TITLE "Piano sonata No. 24 in F sharp minor, Op. 61 - II. Tempo vivace e con fuoco quasi presto"
PERFORMER "Masumi Nagasawa & Richard Egarr"
INDEX 01 00:00:00
TRACK 06 AUDIO
INDEX 00 06:51:73
FILE "06 - Duettino II for the harp and pianoforte in F major , C. 190 - I. Moderato.flac" WAVE
TITLE "Duettino II for the harp and pianoforte in F major , C. 190 - I. Moderato"
PERFORMER "Masumi Nagasawa & Richard Egarr"
INDEX 00 00:00:00
INDEX 01 00:00:35
FILE "07 - Duettino II for the harp and pianoforte in F major , C. 190 - II. Rondo. Allegro.flac" WAVE
TRACK 07 AUDIO
TITLE "Duettino II for the harp and pianoforte in F major , C. 190 - II. Rondo. Allegro"
PERFORMER "Masumi Nagasawa & Richard Egarr"
INDEX 01 00:00:00
TRACK 08 AUDIO
INDEX 00 01:54:06
FILE "08 - Sonata for harp solo in E flat major, Op. 34 no. 1 - I. Allegro brillante.flac" WAVE
TITLE "Sonata for harp solo in E flat major, Op. 34 no. 1 - I. Allegro brillante"
PERFORMER "Masumi Nagasawa & Richard Egarr"
INDEX 01 00:00:00
TRACK 09 AUDIO
INDEX 00 08:58:28
FILE "09 - Sonata for harp solo in E flat major, Op. 34 no. 1 - II. Andantino piuttosto larghetto.flac" WAVE
TITLE "Sonata for harp solo in E flat major, Op. 34 no. 1 - II. Andantino piuttosto larghetto"
PERFORMER "Masumi Nagasawa & Richard Egarr"
INDEX 01 00:00:00
TRACK 10 AUDIO
INDEX 00 05:10:47
FILE "10 - Sonata for harp solo in E flat major, Op. 34 no. 1 - III. Rondo. Allegretto moderato.flac" WAVE
TITLE "Sonata for harp solo in E flat major, Op. 34 no. 1 - III. Rondo. Allegretto moderato"
PERFORMER "Masumi Nagasawa & Richard Egarr"
INDEX 01 00:00:00
TRACK 11 AUDIO
INDEX 00 04:22:25
FILE "11 - Duo concertant for the harp and pianoforte in B flat major, Op. 69 no. 1 - I. Allegro con fuoco.flac" WAVE
TITLE "Duo concertant for the harp and pianoforte in B flat major, Op. 69 no. 1 - I. Allegro con fuoco"
PERFORMER "Masumi Nagasawa & Richard Egarr"
INDEX 01 00:00:00
TRACK 12 AUDIO
INDEX 00 09:28:41
FILE "12 - Duo concertant for the harp and pianoforte in B flat major, Op. 69 no. 1 - II. Marche funebre. Andante moderato.flac" WAVE
TITLE "Duo concertant for the harp and pianoforte in B flat major, Op. 69 no. 1 - II. Marche funebre. Andante moderato"
PERFORMER "Masumi Nagasawa & Richard Egarr"
INDEX 01 00:00:00
TRACK 13 AUDIO
INDEX 00 06:19:73
FILE "13 - Duo concertant for the harp and pianoforte in B flat major, Op. 69 no. 1 - III. Minuetto. Tempo di ballo quasi andante.flac" WAVE
TITLE "Duo concertant for the harp and pianoforte in B flat major, Op. 69 no. 1 - III. Minuetto. Tempo di ballo quasi andante"
PERFORMER "Masumi Nagasawa & Richard Egarr"
INDEX 00 00:00:00
INDEX 01 00:00:28
INDEX 02 06:43:21

Лог проверки качества

AUDIOCHECKER v2.0 beta (build 457) - by Dester - opdester@freemail.hu
~~~~~~~~~~~~~~~~~~~~~~~~~~~~~~~~~~
-=== DO NOT EDIT THIS FILE! ===-
Path: ...\Dussek – Grand Desserts (Masumi Nagasawa & Richard Egarr)
01 -=- 01 - Duet for the harp and pianoforte in E flat major, Op. 38 - I. (Allegro).flac -=- CDDA (100%)
02 -=- 02 - Duet for the harp and pianoforte in E flat major, Op. 38 - II. Adagio espressivo.flac -=- CDDA (99%)
03 -=- 03 - Duet for the harp and pianoforte in E flat major, Op. 38 - III. Rondo. Allegretto.flac -=- CDDA (99%)
04 -=- 04 - Piano sonata No. 24 in F sharp minor, Op. 61 - I. Lento patetico - Tempo agitato.flac -=- MPEG (89%)
05 -=- 05 - Piano sonata No. 24 in F sharp minor, Op. 61 - II. Tempo vivace e con fuoco quasi presto.flac -=- MPEG (90%)
06 -=- 06 - Duettino II for the harp and pianoforte in F major , C. 190 - I. Moderato.flac -=- CDDA (92%)
07 -=- 07 - Duettino II for the harp and pianoforte in F major , C. 190 - II. Rondo. Allegro.flac -=- CDDA (100%)
08 -=- 08 - Sonata for harp solo in E flat major, Op. 34 no. 1 - I. Allegro brillante.flac -=- CDDA (43%)
09 -=- 09 - Sonata for harp solo in E flat major, Op. 34 no. 1 - II. Andantino piuttosto larghetto.flac -=- CDDA (43%)
10 -=- 10 - Sonata for harp solo in E flat major, Op. 34 no. 1 - III. Rondo. Allegretto moderato.flac -=- CDDA (58%)
11 -=- 11 - Duo concertant for the harp and pianoforte in B flat major, Op. 69 no. 1 - I. Allegro con fuoco.flac -=- CDDA (85%)
12 -=- 12 - Duo concertant for the harp and pianoforte in B flat major, Op. 69 no. 1 - II. Marche funebre. Andante moderato.flac -=- CDDA (99%)
13 -=- 13 - Duo concertant for the harp and pianoforte in B flat major, Op. 69 no. 1 - III. Minuetto. Tempo di ballo quasi andante.flac -=- CDDA (100%)
Summary 72,23% CDDA
73841284



Показать сообщения:    

Текущее время: 11-Дек 05:20

Часовой пояс: UTC + 3


Вы не можете начинать темы
Вы не можете отвечать на сообщения
Вы не можете редактировать свои сообщения
Вы не можете удалять свои сообщения
Вы не можете голосовать в опросах
Вы не можете прикреплять файлы к сообщениям
Вы не можете скачивать файлы