Бобби Фишер против всего мира / Bobby Fischer Against the World (Лиз Гарбус / Liz Garbus) [2011, документальный, биография, спорт, HDTVRip]


Статистика раздачи [Обновить пиров]
Размер:  744 MB   |    Зарегистрирован:  8 месяцев 20 дней   |    Скачан:  0 раз

Полного источника не было: Никогда

 
   
 
 
 

[Цитировать]

Бобби Фишер против всего мира / Bobby Fischer Against the World
Дата/Год выпуска: 2011
Страна: США
Жанр: документальный, биография, спорт
Продолжительность: 01:32:52
Перевод: Профессиональный (многоголосый закадровый)

Режиссер: Лиз Гарбус / Liz Garbus
Описание: Первая полнометражная попытка исследовать жизнь Бобби Фишера — человека, которого многие называют самым гениальным шахматистом всех времен и народов. Приняв участие в своем первом турнире в десять лет, Фишер с годами все больше и больше отдалялся от окружающего его мира, уделяя все свое внимание любимому занятию. Фишер выигрывал все состязания, в которых участвовал, и все время становился «самым» — самым молодым чемпионом США, самым молодым международным гроссмейстером.
В 1972 году Фишер стал иконой Холодной войны, выиграв у «непобедимого» советского шахматиста Бориса Спасского. В своей последней партии — в 1992 году — Фишер также одержал победу над Спасским, и бесследно исчез, превратившись в отшельника. Гениальный шахматист всегда отличался эксцентричным поведением, но с годами, его судьба все более напоминала жизненный путь великого математика Джона Нэша, также не сумевшего удержаться на тонкой грани, разделяющей гений и безумство. Когда в 2001 году Фишер вновь возник на мировой арене, он предстал перед миром безумцем и параноиком, убежденно рассказывающим о заговоре против него ЦРУ и Госдепа США…

качество: HDTVRip [Bobby.Fischer.Against.the.World.(Liz Garbus, 2011).HDTV.720p.mkv]
формат: AVI
Видео: 640x352 (1.82:1), 23.976 fps, XviD build 73 ~981 kbps avg, 0.18 bit/pixel
Аудио: 48 kHz, MPEG Layer 3, 2 ch, ~128.00 kbps avg

MediaInfo

Общее
Полное имя : H:\Bobby.Fischer.Against.the.World.2011.hdtvrip_[745]_[teko].avi
Формат : AVI
Формат/Информация : Audio Video Interleave
Размер файла : 744 Мбайт
Продолжительность : 1 ч. 32 м.
Общий поток : 1119 Кбит/сек
Программа кодирования : VirtualDubMod 1.5.10.3 | www.virtualdub-fr.org || (build 2550/release)
Библиотека кодирования : VirtualDubMod build 2550/release
Видео
Идентификатор : 0
Формат : MPEG-4 Visual
Профиль формата : Advanced Simple@L5
Параметр BVOP формата : 2
Параметр QPel формата : Нет
Параметр GMC формата : Без точки перехода
Параметр матрицы формата : Выборочная
Идентификатор кодека : XVID
Идентификатор кодека/Подсказка : XviD
Продолжительность : 1 ч. 32 м.
Битрейт : 982 Кбит/сек
Ширина : 640 пикселей
Высота : 352 пикселя
Соотношение сторон : 16:9
Частота кадров : 23,976 кадра/сек
Цветовое пространство : YUV
Субдискретизация насыщенности : 4:2:0
Битовая глубина : 8 бит
Тип развёртки : Прогрессивная
Метод сжатия : С потерями
Бит/(Пиксели*Кадры) : 0.182
Размер потока : 652 Мбайт (88%)
Библиотека кодирования : XviD 73
Аудио
Идентификатор : 1
Формат : MPEG Audio
Версия формата : Version 1
Профиль формата : Layer 3
Идентификатор кодека : 55
Идентификатор кодека/Подсказка : MP3
Продолжительность : 1 ч. 32 м.
Вид битрейта : Постоянный
Битрейт : 128 Кбит/сек
Каналы : 2 канала
Частота : 48,0 КГц
Метод сжатия : С потерями
Размер потока : 85,0 Мбайт (11%)
Выравнивание : Соединение по промежуткам
Продолжительность промежутка : 42 мс. (1,00 видеокадр)
Время предзагрузки промежутка : 504 мс.
Библиотека кодирования : LAME3.98r
Настройки программы : -m s -V 4 -q 2 -lowpass 17 -b 128
[teatrix.ru].t21742.torrent 
Торрент: Зарегистрирован [ 2016-03-20 12:54 ] · E65D6DC2F26D02542E1941316D2924D7AFC729D2

Скачать .torrent

Скачать

15 KB

Статус: проверено
Скачан: 0 раз
Размер: 744 MB
terms.php



Быстрый ответ

Имя:

      
Для отправки сообщений необходимо включить JavaScript
Показать сообщения:    

Текущее время: 10-Дек 04:12

Часовой пояс: UTC + 3


Вы можете начинать темы
Вы можете отвечать на сообщения
Вы не можете редактировать свои сообщения
Вы не можете удалять свои сообщения
Вы не можете голосовать в опросах
Вы не можете прикреплять файлы к сообщениям
Вы можете скачивать файлы