(Classical) Gloria Coates - String Quartets Nos. 1, 5 & 6 - Kreutzer Quartet - 2002, FLAC (image+.cue) lossless


 

[Цитировать]

Gloria Coates - String Quartets Nos. 1, 5 & 6 - Kreutzer Quartet
Жанр: Classical
Год издания диска: 2002
Издатель (лейбл): Naxos
Номер по каталогу: 8.559091
Дата записи: 2000
Аудиокодек: FLAC
Тип рипа: image+.cue
Битрейт аудио: lossless
Продолжительность: 59:02
Источник: собственный рип
Наличие сканов в содержимом раздачи: да
Треклист:
Gloria Coates
[1]-[3] String Quartet No.5 (1988)
[4] String Quartet No.1 (1966)
[5]-[7] String Quartet No.6 (1999)
Исполнители:
Kreutzer Quartet
Peter Sheppard Skærved violin
Gordon MacKay violin
Bridget Carey viola
Neil Heyde cello

Лог создания рипа

Exact Audio Copy V1.0 beta 3 from 29. August 2011
EAC extraction logfile from 16. December 2014, 17:49
Kreutzer Quarter / Coates - String Quartets Nos. 1, 5 & 6
Used drive : HL-DT-STDVDRRW GWA-4164B Adapter: 5 ID: 0
Read mode : Secure
Utilize accurate stream : Yes
Defeat audio cache : Yes
Make use of C2 pointers : No
Read offset correction : 102
Overread into Lead-In and Lead-Out : No
Fill up missing offset samples with silence : Yes
Delete leading and trailing silent blocks : No
Null samples used in CRC calculations : Yes
Used interface : Native Win32 interface for Win NT & 2000
Used output format : User Defined Encoder
Selected bitrate : 896 kBit/s
Quality : High
Add ID3 tag : No
Command line compressor : C:\Program Files\Exact Audio Copy\FLAC\FLAC.EXE
Additional command line options : -V -8 %source%
TOC of the extracted CD
Track | Start | Length | Start sector | End sector
---------------------------------------------------------
1 | 0:00.00 | 10:59.25 | 0 | 49449
2 | 10:59.25 | 11:07.37 | 49450 | 99511
3 | 22:06.62 | 9:07.28 | 99512 | 140564
4 | 31:14.15 | 5:49.10 | 140565 | 166749
5 | 37:03.25 | 6:11.52 | 166750 | 194626
6 | 43:15.02 | 8:52.32 | 194627 | 234558
7 | 52:07.34 | 7:08.41 | 234559 | 266699
Range status and errors
Selected range
Filename D:\temp\Music\Coates - String Quartets Nos. 1, 5 & 6\Coates - String Quartets Nos. 1, 5 & 6.wav
Peak level 96.7 %
Extraction speed 2.7 X
Range quality 100.0 %
Test CRC E56B71D4
Copy CRC E56B71D4
Copy OK
No errors occurred
AccurateRip summary
Track 1 accurately ripped (confidence 7) [83A762EF] (AR v2)
Track 2 accurately ripped (confidence 7) [A3B09C8D] (AR v2)
Track 3 accurately ripped (confidence 7) [7B9FD803] (AR v2)
Track 4 accurately ripped (confidence 7) [6AA91316] (AR v2)
Track 5 accurately ripped (confidence 7) [4FEF0671] (AR v2)
Track 6 accurately ripped (confidence 7) [92CB6EF0] (AR v2)
Track 7 accurately ripped (confidence 7) [D212D7AC] (AR v2)
All tracks accurately ripped
End of status report
==== Log checksum 47C7AECB6F71535D1557B5C6199CE314DEAD74C712A0699C22B85C49734A1302 ====



Показать сообщения:    

Текущее время: 10-Дек 04:09

Часовой пояс: UTC + 3


Вы не можете начинать темы
Вы не можете отвечать на сообщения
Вы не можете редактировать свои сообщения
Вы не можете удалять свои сообщения
Вы не можете голосовать в опросах
Вы не можете прикреплять файлы к сообщениям
Вы не можете скачивать файлы