(Classical) Gloria Coates - String Quartets Nos. 2, 3, 4, 7 & 8 - Kreutzer Quartet - 2003, FLAC (image+.cue) lossless


 

[Цитировать]

Gloria Coates - String Quartets Nos. 2, 3, 4, 7 & 8 - Kreutzer Quartet
Жанр: Classical
Год издания диска: 2003
Издатель (лейбл): Naxos
Номер по каталогу: 8.559152
Дата записи: 2000, 2003
Аудиокодек: FLAC
Тип рипа: image+.cue
Битрейт аудио: lossless
Продолжительность: 64:37
Источник: собственный рип
Наличие сканов в содержимом раздачи: да
Треклист:
Gloria Coates
[1] String Quartet No. 7 ‘Angels’ (2000)
[2] String Quartet No. 2 (1972)
[3]-[5] String Quartet No. 8 (2001 - 2002)
[6]-[8] String Quartet No. 4 (1976)
[9]-[11] String Quartet No. 3 (1975)
Исполнители:
Kreutzer Quartet
Peter Sheppard Skærved violin
Gordon MacKay violin
Bridget Carey viola
Neil Heyde cello
Philip Adams organ ([1])
Michael Finnissy conductor ([1])

Лог создания рипа

Exact Audio Copy V1.0 beta 3 from 29. August 2011
EAC extraction logfile from 15. February 2015, 1:56
Kreutzer Quarter / Coates - String Quartets 2, 3, 4, 7 & 8
Used drive : HL-DT-STDVDRAM GU70N Adapter: 0 ID: 0
Read mode : Secure
Utilize accurate stream : Yes
Defeat audio cache : Yes
Make use of C2 pointers : No
Read offset correction : 48
Overread into Lead-In and Lead-Out : No
Fill up missing offset samples with silence : Yes
Delete leading and trailing silent blocks : No
Null samples used in CRC calculations : Yes
Used interface : Native Win32 interface for Win NT & 2000
Used output format : User Defined Encoder
Selected bitrate : 128 kBit/s
Quality : High
Add ID3 tag : No
Command line compressor : C:\Program Files (x86)\Exact Audio Copy\Flac\flac.exe
Additional command line options : -V -8 -T "Date=%year%" -T "Genre=%genre%" %source%
TOC of the extracted CD
Track | Start | Length | Start sector | End sector
---------------------------------------------------------
1 | 0:00.00 | 15:14.42 | 0 | 68591
2 | 15:14.42 | 6:29.05 | 68592 | 97771
3 | 21:43.47 | 5:01.38 | 97772 | 120384
4 | 26:45.10 | 4:25.07 | 120385 | 140266
5 | 31:10.17 | 5:13.55 | 140267 | 163796
6 | 36:23.72 | 4:17.15 | 163797 | 183086
7 | 40:41.12 | 5:15.60 | 183087 | 206771
8 | 45:56.72 | 4:00.48 | 206772 | 224819
9 | 49:57.45 | 4:30.17 | 224820 | 245086
10 | 54:27.62 | 5:00.50 | 245087 | 267636
11 | 59:28.37 | 5:06.38 | 267637 | 290624
Range status and errors
Selected range
Filename C:\temp\Coates - String Quartets Nos. 2, 3, 4, 7 & 8\Coates - String Quartets 2, 3, 4, 7 & 8.wav
Peak level 98.9 %
Extraction speed 5.2 X
Range quality 100.0 %
Test CRC F01DBC9A
Copy CRC F01DBC9A
Copy OK
No errors occurred
AccurateRip summary
Track 1 cannot be verified as accurate (confidence 3) [1C178E82], AccurateRip returned [9325DA0F] (AR v2)
Track 2 cannot be verified as accurate (confidence 3) [52FD4DE6], AccurateRip returned [AC8103E0] (AR v2)
Track 3 cannot be verified as accurate (confidence 3) [12762B47], AccurateRip returned [D309824E] (AR v2)
Track 4 cannot be verified as accurate (confidence 3) [23270B7D], AccurateRip returned [F0290BC9] (AR v2)
Track 5 cannot be verified as accurate (confidence 3) [49E15C35], AccurateRip returned [88C2A406] (AR v2)
Track 6 cannot be verified as accurate (confidence 3) [B34EA598], AccurateRip returned [73BC749B] (AR v2)
Track 7 cannot be verified as accurate (confidence 3) [256825F3], AccurateRip returned [2F8758A2] (AR v2)
Track 8 cannot be verified as accurate (confidence 3) [10AB4766], AccurateRip returned [EB3628F4] (AR v2)
Track 9 cannot be verified as accurate (confidence 3) [71EBC63D], AccurateRip returned [D5EB52AC] (AR v2)
Track 10 cannot be verified as accurate (confidence 3) [740A851D], AccurateRip returned [4D3E57B3] (AR v2)
Track 11 cannot be verified as accurate (confidence 3) [42379CD8], AccurateRip returned [5BDB99FE] (AR v2)
No tracks could be verified as accurate
You may have a different pressing from the one(s) in the database
End of status report
==== Log checksum A1ECA012631C17DA69BBE59C33D54C87F7BDD0A64B41C0F4C24988A45A1B5249 ====



Показать сообщения:    

Текущее время: 10-Дек 04:07

Часовой пояс: UTC + 3


Вы не можете начинать темы
Вы не можете отвечать на сообщения
Вы не можете редактировать свои сообщения
Вы не можете удалять свои сообщения
Вы не можете голосовать в опросах
Вы не можете прикреплять файлы к сообщениям
Вы не можете скачивать файлы