(Classical, period) Дюссеки Я.Л. и С.Ж. (Корри) – Сочинения для арфы соло [2 CDs]/ Madame et monsieur Dussek – Works for harp solo: concerto, sonatas, sonatinas etc. (Masumi Nagasawa) - 2012, FLAC (tracks+.cue) lossless


 

[Цитировать]

[DUSSEK: Vol. 1]
Дюссеки Я.Л. и С.Ж. (Корри) – Сочинения для арфы соло [2 CDs]/ Madame et monsieur Dussek – Works for harp solo: concerto, sonatas, sonatinas etc. (Masumi Nagasawa)

Жанр: Classical, period
Страна-производитель диска: Нидерланды
Год издания диска: 2012
Издатель (лейбл): etcetera
Номер по каталогу: KTC 1439
Дата записи: октябрь 2011 г., Амстердам
Аудиокодек: FLAC
Тип рипа: tracks+.cue
Битрейт аудио: lossless
Продолжительность: 00:59:10 + 01:03:44
Источник: duckjammy на MIMC
Наличие сканов в содержимом раздачи: да
Треклист:-Cd 1.
Ян Ладислав Дюссек (1760 — 1812).
01 — 02. Соната B-dur, op. 34 № 2, C. 148, версия для арфы соло.
София Жюстина Дюссек (урожд. Корри; 1775 — ок. 1831) [sic!].
03 — 14. Шесть сонатин для арфы соло, C. d160 — d165.
Ян Ладислав Дюссек (1760 — 1812).
15. Английская песня [«In the dead of the night»] с вариациями G-dur, C. 113.
16 — 17. Анданте и рондо Es-dur для арфы соло.
Cd 2.
София Жюстина Дюссек (урожд. Корри; 1775 — ок. 1831).
01 — 18. [Шесть] сонат для арфы соло, op. 2.
19. Сицилийская песня Es-dur для арфы соло.
Ян Ладислав Дюссек (1760 — 1812).
20 — 21. Арфовый концерт B-dur, C. 264 (утраченный), переложение С. Ж. Дюссек (Корри) для арфы соло.

Подробный треклист

Cd 1.
Ян Ладислав Дюссек (1760 — 1812).-Две сонаты для фортепиано в сопровождении скрипки и виолончели, op. 34 (1797): Соната № 2 B-dur, C. 148, версия для арфы соло.
01. I. Allegro con spirito [08:20].
02. II. Rondo. Andantino con grazia [05:09].-София Жюстина Дюссек (урожд. Корри; 1775 — ок. 1831).-Шесть сонатин для арфы соло, C. d160 — d165 (ранее приписывались Я. Л. Дюссеку).
Сонатина № 1 C-dur, C. d160.
03. I. Andante con moto [03:45].
04. II. Allegretto non tanto [02:03].
Сонатина № 2 F-dur, C. d161.
05. I. Andante grazioso [03:01].
06. II. Allegro [03:29].
Сонатина № 3 G-dur, C. d162.
07. I. Andantino poco allegretto [02:03].
08. II. Allegro non tanto [02:12].
Сонатина № 4 B-dur, C. d163.
09. I. Larghetto con espressione [03:15].
10. II. Rondo. Allegretto [02:31].
Сонатина № 5 F-dur, C. d164.
11. I. Larghetto [01:49].
12. II. Rondo. Allegretto [02:08].
Сонатина № 6 Es-dur, C. d165.
13. I. Adagio [03:23].
14. II. Tempo di menuetto [01:53].-Ян Ладислав Дюссек (1760 — 1812).-Двенадцать мелодических этюдов (прогрессивных уроков) для фортепиано или арфы, op. 32 / 16 / 30 (1794).
15. № 8 G-dur. Английская песня [«In the dead of the night»] с вариациями, C. 113. Andante moderato [05:22].
Анданте и рондо Es-dur для арфы соло[, посвященные леди Лоутер (Lowther)].
16. Larghetto con esprssione. — [03:08].
17. Rondo. Allegretto [05:30].-Cd 2.
София Жюстина Дюссек (урожд. Корри; 1775 — ок. 1831).-[Шесть] сонат с шотландскими песнями и рилами для арфы соло, op. 2.
Тетрадь I (опубл. 1794).
Соната № 1 B-dur.
01. I. Allegro moderato [03:12].
02. II. Andante [01:10].
03. III. Rondo. Allegro [02:49].
Соната № 2 G-dur.
04. I. Allegro moderato [02:36].
05. II. Andante [02:01].
06. III. Rondo. Allegro moderato [02:39].
Соната № 3 c-moll.
07. I. Allegro moderato [02:45].
08. II. Andantino [01:53].
09. III. Rondo. Allegro [02:57].
Тетрадь II (опубл. 1794).
Соната № 4 Es-dur.
10. I. Allegro maestoso [03:20].
11. II. «Лохабер» (Lochaber). Andante [02:56].
12. III. Rondo. Allegretto [02:03].
Соната № 5 F-dur.
13. I. Allegro assai [04:19].
14. II. Larghetto con espressione [02:03].
15. III. Allegretto [01:32].
Соната № 6 C-dur.
16. I. Allegretto [02:55].
17. II. Andante con espressione [02:19].
18. III. Rondo. «Каледонская охота» (Caledonian hunt). Allegro [03:56].
19. Сицилийская песня, ставшая источником песни «Home! Sweet home!», Es-dur для арфы соло [05:20].
Ян Ладислав Дюссек (1760 — 1812).
Арфовый концерт B-dur, C. 264 (утраченный), переложение С. Ж. Дюссек (Корри) для арфы соло (оп. 1813).
20. I. Allegro con brio [06:16].
21. II. Rondo. Allegretto moderato [04:34].
-Исполнитель:
Masumi Nagasawa (арфа, ок. 1815).-

Логи создания рипаCD 1.

Exact Audio Copy V1.0 beta 3 from 29. August 2011
EAC extraction logfile from 7. June 2015, 16:54
Masumi Nagasawa / Madame et Monssieur Dussek Disc 1
Used drive : TSSTcorpCDDVDW SE-208DB Adapter: 1 ID: 0
Read mode : Secure
Utilize accurate stream : Yes
Defeat audio cache : Yes
Make use of C2 pointers : No
Read offset correction : 6
Overread into Lead-In and Lead-Out : No
Fill up missing offset samples with silence : Yes
Delete leading and trailing silent blocks : No
Null samples used in CRC calculations : Yes
Used interface : Native Win32 interface for Win NT & 2000
Gap handling : Appended to previous track
Used output format : User Defined Encoder
Selected bitrate : 1024 kBit/s
Quality : High
Add ID3 tag : No
Command line compressor : C:\Program Files (x86)\Exact Audio Copy\FLAC\FLAC.EXE
Additional command line options : -8 -V -T "ARTIST=%artist%" -T "TITLE=%title%" -T "ALBUM=%albumtitle%" -T "DATE=%year%" -T "TRACKNUMBER=%tracknr%" -T "GENRE=%genre%" -T "PERFORMER=%albuminterpret%" -T "COMPOSER=%composer%" %haslyrics%--tag-from-file=LYRICS="%lyricsfile%"%haslyrics% -T "ALBUMARTIST=%albumartist%" -T "DISCNUMBER=%cdnumber%" -T "TOTALDISCS=%totalcds%" -T "TOTALTRACKS=%numduckjamytracks%" -T "COMMENT=%comment%" %source% -o %dest%
TOC of the extracted CD
Track | Start | Length | Start sector | End sector
---------------------------------------------------------
1 | 0:00.00 | 8:20.49 | 0 | 37548
2 | 8:20.49 | 5:09.42 | 37549 | 60765
3 | 13:30.16 | 3:45.68 | 60766 | 77708
4 | 17:16.09 | 2:03.73 | 77709 | 87006
5 | 19:20.07 | 3:01.11 | 87007 | 100592
6 | 22:21.18 | 3:29.30 | 100593 | 116297
7 | 25:50.48 | 2:03.28 | 116298 | 125550
8 | 27:54.01 | 2:12.47 | 125551 | 135497
9 | 30:06.48 | 3:15.16 | 135498 | 150138
10 | 33:21.64 | 2:31.55 | 150139 | 161518
11 | 35:53.44 | 1:49.67 | 161519 | 169760
12 | 37:43.36 | 2:08.42 | 169761 | 179402
13 | 39:52.03 | 3:23.36 | 179403 | 194663
14 | 43:15.39 | 1:53.45 | 194664 | 203183
15 | 45:09.09 | 5:22.00 | 203184 | 227333
16 | 50:31.09 | 3:08.31 | 227334 | 241464
17 | 53:39.40 | 5:30.19 | 241465 | 266233
Track 1
Filename C:\E\01 - Sonata II op. 34 in B flat major- Allegro con spirito.wav
Pre-gap length 0:00:02.00
Peak level 77.7 %
Extraction speed 2.6 X
Track quality 99.9 %
Test CRC 8593D24E
Copy CRC 8593D24E
Accurately ripped (confidence 2) [52EF12B7] (AR v2)
Copy OK
Track 2
Filename C:\E\02 - Sonata II op. 34 in B flat major- Rondo. Andantino con moto.wav
Peak level 82.5 %
Extraction speed 3.0 X
Track quality 100.0 %
Test CRC D6C5C7E0
Copy CRC D6C5C7E0
Accurately ripped (confidence 2) [48F05978] (AR v2)
Copy OK
Track 3
Filename C:\E\03 - Sonatina I in C major- Andante con moto.wav
Peak level 45.2 %
Extraction speed 3.1 X
Track quality 100.0 %
Test CRC 65D7DAEA
Copy CRC 65D7DAEA
Accurately ripped (confidence 2) [C452D1D9] (AR v2)
Copy OK
Track 4
Filename C:\E\04 - Sonatina I in C major- Allegretto non tanto.wav
Peak level 90.2 %
Extraction speed 3.1 X
Track quality 100.0 %
Test CRC 555DBED4
Copy CRC 555DBED4
Accurately ripped (confidence 2) [1FB40ADB] (AR v2)
Copy OK
Track 5
Filename C:\E\05 - Sonatina II in F major- Andante grazioso.wav
Peak level 48.4 %
Extraction speed 3.3 X
Track quality 100.0 %
Test CRC 54BCD8BD
Copy CRC 54BCD8BD
Accurately ripped (confidence 2) [CB9ECC98] (AR v2)
Copy OK
Track 6
Filename C:\E\06 - Sonatina II in F major- Allegro.wav
Peak level 56.6 %
Extraction speed 3.6 X
Track quality 100.0 %
Test CRC 7C06DB4D
Copy CRC 7C06DB4D
Accurately ripped (confidence 2) [B3077928] (AR v2)
Copy OK
Track 7
Filename C:\E\07 - Sonatina III in G major- Andantino poco allegretto.wav
Peak level 48.3 %
Extraction speed 3.4 X
Track quality 100.0 %
Test CRC 153E40B2
Copy CRC 153E40B2
Accurately ripped (confidence 2) [9BBC51C7] (AR v2)
Copy OK
Track 8
Filename C:\E\08 - Sonatina III in G major- Allegro non tanto.wav
Peak level 67.9 %
Extraction speed 3.6 X
Track quality 100.0 %
Test CRC 4B3FBC99
Copy CRC 4B3FBC99
Accurately ripped (confidence 2) [36D6CB7C] (AR v2)
Copy OK
Track 9
Filename C:\E\09 - Sonatina IV in B flat major- Larghetto con espressione.wav
Peak level 37.4 %
Extraction speed 3.0 X
Track quality 99.9 %
Test CRC 47085931
Copy CRC 47085931
Accurately ripped (confidence 2) [F970A9C1] (AR v2)
Copy OK
Track 10
Filename C:\E\10 - Sonatina IV in B flat major- Rondo. Allegretto.wav
Peak level 33.3 %
Extraction speed 2.9 X
Track quality 99.9 %
Test CRC 41B8C17F
Copy CRC 41B8C17F
Accurately ripped (confidence 2) [0FF66D23] (AR v2)
Copy OK
Track 11
Filename C:\E\11 - Sonatina V in F major- Larghetto.wav
Peak level 50.1 %
Extraction speed 2.5 X
Track quality 99.9 %
Test CRC 9CF5F947
Copy CRC 9CF5F947
Accurately ripped (confidence 2) [83424783] (AR v2)
Copy OK
Track 12
Filename C:\E\12 - Sonatina V in F major- Rondo. Allegretto.wav
Peak level 55.4 %
Extraction speed 3.4 X
Track quality 100.0 %
Test CRC B8143AC2
Copy CRC B8143AC2
Accurately ripped (confidence 2) [D10F0E46] (AR v2)
Copy OK
Track 13
Filename C:\E\13 - Sonatina VI in E flat major- Adagio.wav
Peak level 61.0 %
Extraction speed 3.2 X
Track quality 99.9 %
Test CRC 0B4AE9AC
Copy CRC 0B4AE9AC
Accurately ripped (confidence 2) [9FEE4695] (AR v2)
Copy OK
Track 14
Filename C:\E\14 - Sonatina VI in E flat major- Tempo di Menuetto.wav
Peak level 49.8 %
Extraction speed 3.9 X
Track quality 100.0 %
Test CRC 529F1875
Copy CRC 529F1875
Accurately ripped (confidence 2) [BB6BBEE9] (AR v2)
Copy OK
Track 15
Filename C:\E\15 - A favorite English Ballad ''In the dead of the night''.wav
Peak level 76.6 %
Extraction speed 3.8 X
Track quality 99.9 %
Test CRC CC326B0D
Copy CRC CC326B0D
Accurately ripped (confidence 2) [1157AE35] (AR v2)
Copy OK
Track 16
Filename C:\E\16 - Favorite Andante & Rondo dedicated to Lady Lowther- Larghetto con esprssione.wav
Peak level 43.8 %
Extraction speed 4.3 X
Track quality 100.0 %
Test CRC 1B40D4C2
Copy CRC 1B40D4C2
Accurately ripped (confidence 2) [108C2A4C] (AR v2)
Copy OK
Track 17
Filename C:\E\17 - Favorite Andante & Rondo dedicated to Lady Lowther- Rondo. Allegretto.wav
Peak level 72.6 %
Extraction speed 4.5 X
Track quality 100.0 %
Test CRC B58BEB90
Copy CRC B58BEB90
Accurately ripped (confidence 2) [7E81B28D] (AR v2)
Copy OK
All tracks accurately ripped
No errors occurred
End of status report
==== Log checksum 6823C43833FDB58ECF4815BAEDC322A09464E7E7EF72EAB8A7E59350544392F6 ====

CD 2.

Exact Audio Copy V1.0 beta 3 from 29. August 2011
EAC extraction logfile from 7. June 2015, 19:02
Masumi Nagasawa / Madame et Monssieur Dussek Disc 2
Used drive : TSSTcorpCDDVDW SE-208DB Adapter: 1 ID: 0
Read mode : Secure
Utilize accurate stream : Yes
Defeat audio cache : Yes
Make use of C2 pointers : No
Read offset correction : 6
Overread into Lead-In and Lead-Out : No
Fill up missing offset samples with silence : Yes
Delete leading and trailing silent blocks : No
Null samples used in CRC calculations : Yes
Used interface : Native Win32 interface for Win NT & 2000
Gap handling : Appended to previous track
Used output format : User Defined Encoder
Selected bitrate : 1024 kBit/s
Quality : High
Add ID3 tag : No
Command line compressor : C:\Program Files (x86)\Exact Audio Copy\FLAC\FLAC.EXE
Additional command line options : -8 -V -T "ARTIST=%artist%" -T "TITLE=%title%" -T "ALBUM=%albumtitle%" -T "DATE=%year%" -T "TRACKNUMBER=%tracknr%" -T "GENRE=%genre%" -T "PERFORMER=%albuminterpret%" -T "COMPOSER=%composer%" %haslyrics%--tag-from-file=LYRICS="%lyricsfile%"%haslyrics% -T "ALBUMARTIST=%albumartist%" -T "DISCNUMBER=%cdnumber%" -T "TOTALDISCS=%totalcds%" -T "TOTALTRACKS=%numduckjammytracks%" -T "COMMENT=%comment%" %source% -o %dest%
TOC of the extracted CD
Track | Start | Length | Start sector | End sector
---------------------------------------------------------
1 | 0:00.00 | 3:12.34 | 0 | 14433
2 | 3:12.34 | 1:10.27 | 14434 | 19710
3 | 4:22.61 | 2:49.06 | 19711 | 32391
4 | 7:11.67 | 2:36.09 | 32392 | 44100
5 | 9:48.01 | 2:01.34 | 44101 | 53209
6 | 11:49.35 | 2:39.23 | 53210 | 65157
7 | 14:28.58 | 2:45.16 | 65158 | 77548
8 | 17:13.74 | 1:53.14 | 77549 | 86037
9 | 19:07.13 | 2:57.62 | 86038 | 99374
10 | 22:05.00 | 3:20.37 | 99375 | 114411
11 | 25:25.37 | 2:56.73 | 114412 | 127684
12 | 28:22.35 | 2:03.23 | 127685 | 136932
13 | 30:25.58 | 4:19.72 | 136933 | 156429
14 | 34:45.55 | 2:03.31 | 156430 | 165685
15 | 36:49.11 | 1:32.48 | 165686 | 172633
16 | 38:21.59 | 2:55.68 | 172634 | 185826
17 | 41:17.52 | 2:19.00 | 185827 | 196251
18 | 43:36.52 | 3:56.31 | 196252 | 213982
19 | 47:33.08 | 5:20.62 | 213983 | 238044
20 | 52:53.70 | 6:16.27 | 238045 | 266271
21 | 59:10.22 | 4:34.12 | 266272 | 286833
Track 1
Filename C:\E\01 - Sonata I in B flat major- Allegro moderato.wav
Pre-gap length 0:00:02.00
Peak level 57.6 %
Extraction speed 2.6 X
Track quality 100.0 %
Test CRC F16B7A26
Copy CRC F16B7A26
Accurately ripped (confidence 2) [DEDE1694] (AR v2)
Copy OK
Track 2
Filename C:\E\02 - Sonata I in B flat major- Andante.wav
Peak level 53.4 %
Extraction speed 1.3 X
Track quality 99.8 %
Test CRC 4AA97AEC
Copy CRC 4AA97AEC
Accurately ripped (confidence 2) [D1DE354A] (AR v2)
Copy OK
Track 3
Filename C:\E\03 - Sonata I in B flat major- Rondo. Allegro.wav
Peak level 56.3 %
Extraction speed 2.8 X
Track quality 100.0 %
Test CRC 436D0DEA
Copy CRC 436D0DEA
Accurately ripped (confidence 2) [F25979F3] (AR v2)
Copy OK
Track 4
Filename C:\E\04 - Sonata II in G major- Allegro moderato.wav
Peak level 49.3 %
Extraction speed 2.9 X
Track quality 100.0 %
Test CRC 696C0DAA
Copy CRC 696C0DAA
Accurately ripped (confidence 2) [8926FE1B] (AR v2)
Copy OK
Track 5
Filename C:\E\05 - Sonata II in G major- Andante.wav
Peak level 45.9 %
Extraction speed 2.8 X
Track quality 100.0 %
Test CRC CCD51771
Copy CRC CCD51771
Accurately ripped (confidence 2) [8892B6DB] (AR v2)
Copy OK
Track 6
Filename C:\E\06 - Sonata II in G major- Rondo. Allegro.wav
Peak level 61.3 %
Extraction speed 3.1 X
Track quality 100.0 %
Test CRC 26391DAC
Copy CRC 26391DAC
Accurately ripped (confidence 2) [F9AD91CF] (AR v2)
Copy OK
Track 7
Filename C:\E\07 - Sonata III in C minor- Allegro moderato.wav
Peak level 61.2 %
Extraction speed 3.3 X
Track quality 100.0 %
Test CRC 9B11A2AF
Copy CRC 9B11A2AF
Accurately ripped (confidence 2) [E7FEC28E] (AR v2)
Copy OK
Track 8
Filename C:\E\08 - Sonata III in C minor- Andantino.wav
Peak level 33.3 %
Extraction speed 2.2 X
Track quality 99.9 %
Test CRC 6EA14515
Copy CRC 6EA14515
Accurately ripped (confidence 2) [57051953] (AR v2)
Copy OK
Track 9
Filename C:\E\09 - Sonata III in C minor- Rondo. Allegro.wav
Peak level 64.5 %
Extraction speed 3.6 X
Track quality 100.0 %
Test CRC CC056139
Copy CRC CC056139
Accurately ripped (confidence 2) [A1CC028F] (AR v2)
Copy OK
Track 10
Filename C:\E\10 - Sonata I in E flat major- Allegro maestoso.wav
Peak level 70.4 %
Extraction speed 2.9 X
Track quality 99.9 %
Test CRC 78619925
Copy CRC 78619925
Accurately ripped (confidence 2) [CC3492A6] (AR v2)
Copy OK
Track 11
Filename C:\E\11 - Sonata I in E flat major- Andante ''Lochaber''.wav
Peak level 74.9 %
Extraction speed 2.8 X
Track quality 99.9 %
Test CRC 2D969C1A
Copy CRC 2D969C1A
Accurately ripped (confidence 2) [D9E971E8] (AR v2)
Copy OK
Track 12
Filename C:\E\12 - Sonata I in E flat major- Rondo. Allegretto.wav
Peak level 50.1 %
Extraction speed 3.5 X
Track quality 100.0 %
Test CRC 631476FF
Copy CRC 631476FF
Accurately ripped (confidence 2) [B34B9C16] (AR v2)
Copy OK
Track 13
Filename C:\E\13 - Sonata II in F major- Allegro assai.wav
Peak level 45.8 %
Extraction speed 3.4 X
Track quality 99.9 %
Test CRC 11F7AF99
Copy CRC 11F7AF99
Accurately ripped (confidence 2) [953EDB66] (AR v2)
Copy OK
Track 14
Filename C:\E\14 - Sonata II in F major- Larghetto con espressione.wav
Peak level 45.5 %
Extraction speed 3.7 X
Track quality 100.0 %
Test CRC 9C92438F
Copy CRC 9C92438F
Accurately ripped (confidence 2) [63E85ACE] (AR v2)
Copy OK
Track 15
Filename C:\E\15 - Sonata II in F major- Allegretto.wav
Peak level 56.5 %
Extraction speed 2.3 X
Track quality 99.8 %
Test CRC F6DB4F36
Copy CRC F6DB4F36
Accurately ripped (confidence 2) [7391F328] (AR v2)
Copy OK
Track 16
Filename C:\E\16 - Sonata III in C major- Allegretto.wav
Peak level 57.5 %
Extraction speed 4.2 X
Track quality 100.0 %
Test CRC B85950D6
Copy CRC B85950D6
Accurately ripped (confidence 2) [DD182204] (AR v2)
Copy OK
Track 17
Filename C:\E\17 - Sonata III in C major- Andante con espressione.wav
Peak level 68.3 %
Extraction speed 3.8 X
Track quality 100.0 %
Test CRC D91D2697
Copy CRC D91D2697
Accurately ripped (confidence 2) [FC8913B7] (AR v2)
Copy OK
Track 18
Filename C:\E\18 - Sonata III in C major- Rondo. Allegro ''Caledonian Hunt''.wav
Peak level 79.0 %
Extraction speed 4.3 X
Track quality 100.0 %
Test CRC 3692DE0B
Copy CRC 3692DE0B
Accurately ripped (confidence 2) [A1F4C088] (AR v2)
Copy OK
Track 19
Filename C:\E\19 - Sicilian Air ''Home, Sweet Home''.wav
Peak level 59.9 %
Extraction speed 4.3 X
Track quality 100.0 %
Test CRC F7233A24
Copy CRC F7233A24
Accurately ripped (confidence 2) [799A435C] (AR v2)
Copy OK
Track 20
Filename C:\E\20 - Dussek's Concerto without acccompaniment- Allegro con brio.wav
Peak level 92.0 %
Extraction speed 4.7 X
Track quality 100.0 %
Test CRC 36C611A7
Copy CRC 36C611A7
Accurately ripped (confidence 2) [7A5652B4] (AR v2)
Copy OK
Track 21
Filename C:\E\21 - Dussek's Concerto without acccompaniment- Rondo. Allegretto moderato.wav
Peak level 78.8 %
Extraction speed 4.6 X
Track quality 100.0 %
Test CRC 9FE0FA69
Copy CRC 9FE0FA69
Accurately ripped (confidence 2) [094F6B4D] (AR v2)
Copy OK
All tracks accurately ripped
No errors occurred
End of status report
==== Log checksum 2D169D5C4F2FE33EA100AB3C2F8551543B36E9C7EB35D22CDD144EBCFB22EE43 ====

Содержание индексных карт (.CUE)CD 1.

REM GENRE "Chamber Music"
REM DATE 2011
REM DISCID CD0DDD11
REM COMMENT "ExactAudioCopy v1.0b3"
PERFORMER "Masumi Nagasawa"
TITLE "Madame et Monssieur Dussek Disc 1"
FILE "01 - Sonata for harp solo in B flat major, Op. 34 no. 2 - I. Allegro con spirito.flac" WAVE
TRACK 01 AUDIO
TITLE "Sonata for harp solo in B flat major, Op. 34 no. 2 - I. Allegro con spirito"
PERFORMER "Masumi Nagasawa"
ISRC NLQ661200037
INDEX 01 00:00:00
FILE "02 - Sonata for harp solo in B flat major, Op. 34 no. 2 - II. Rondo. Andantino con moto.flac" WAVE
TRACK 02 AUDIO
TITLE "Sonata for harp solo in B flat major, Op. 34 no. 2 - II. Rondo. Andantino con moto"
PERFORMER "Masumi Nagasawa"
ISRC NLQ661200038
INDEX 01 00:00:00
FILE "03 - Sonatina for harp solo No. 1 in C major, C. 160 - I. Andante con moto.flac" WAVE
TRACK 03 AUDIO
TITLE "Sonatina for harp solo No. 1 in C major, C. 160 - I. Andante con moto"
PERFORMER "Masumi Nagasawa"
ISRC NLQ661200038
INDEX 01 00:00:00
FILE "04 - Sonatina for harp solo No. 1 in C major, C. 160 - II. Allegretto non tanto.flac" WAVE
TRACK 04 AUDIO
TITLE "Sonatina for harp solo No. 1 in C major, C. 160 - II. Allegretto non tanto"
PERFORMER "Masumi Nagasawa"
ISRC NLQ661200040
INDEX 01 00:00:00
FILE "05 - Sonatina for harp solo No. 2 in F major, C. 161 - I. Andante grazioso.flac" WAVE
TRACK 05 AUDIO
TITLE "Sonatina for harp solo No. 2 in F major, C. 161 - I. Andante grazioso"
PERFORMER "Masumi Nagasawa"
ISRC NLQ661200041
INDEX 01 00:00:00
FILE "06 - Sonatina for harp solo No. 2 in F major, C. 161 - II. Allegro.flac" WAVE
TRACK 06 AUDIO
TITLE "Sonatina for harp solo No. 2 in F major, C. 161 - II. Allegro"
PERFORMER "Masumi Nagasawa"
ISRC NLQ661200042
INDEX 01 00:00:00
FILE "07 - Sonatina for harp solo No. 3 in G major, C. 162 - I. Andantino poco allegretto.flac" WAVE
TRACK 07 AUDIO
TITLE "Sonatina for harp solo No. 3 in G major, C. 162 - I. Andantino poco allegretto"
PERFORMER "Masumi Nagasawa"
ISRC NLQ661200043
INDEX 01 00:00:00
FILE "08 - Sonatina for harp solo No. 3 in G major, C. 162 - II. Allegro non tanto.flac" WAVE
TRACK 08 AUDIO
TITLE "Sonatina for harp solo No. 3 in G major, C. 162 - II. Allegro non tanto"
PERFORMER "Masumi Nagasawa"
ISRC NLQ661200044
INDEX 01 00:00:00
FILE "09 - Sonatina for harp solo No. 4 in B flat major, C. 163 - I. Larghetto con espressione.flac" WAVE
TRACK 09 AUDIO
TITLE "Sonatina for harp solo No. 4 in B flat major, C. 163 - I. Larghetto con espressione"
PERFORMER "Masumi Nagasawa"
ISRC NLQ661200045
INDEX 01 00:00:00
FILE "10 - Sonatina for harp solo No. 4 in B flat major, C. 163 - II. Rondo. Allegretto.flac" WAVE
TRACK 10 AUDIO
TITLE "Sonatina for harp solo No. 4 in B flat major, C. 163 - II. Rondo. Allegretto"
PERFORMER "Masumi Nagasawa"
ISRC NLQ661200046
INDEX 01 00:00:00
FILE "11 - Sonatina for harp solo No. 5 in F major, C. 164 - I. Larghetto.flac" WAVE
TRACK 11 AUDIO
TITLE "Sonatina for harp solo No. 5 in F major, C. 164 - I. Larghetto"
PERFORMER "Masumi Nagasawa"
ISRC NLQ661200047
INDEX 01 00:00:00
FILE "12 - Sonatina for harp solo No. 5 in F major, C. 164 - II. Rondo. Allegretto.flac" WAVE
TRACK 12 AUDIO
TITLE "Sonatina for harp solo No. 5 in F major, C. 164 - II. Rondo. Allegretto"
PERFORMER "Masumi Nagasawa"
ISRC NLQ661200048
INDEX 01 00:00:00
FILE "13 - Sonatina for harp solo No. 6 in E flat major, C. 165 - I. Adagio.flac" WAVE
TRACK 13 AUDIO
TITLE "Sonatina for harp solo No. 6 in E flat major, C. 165 - I. Adagio"
PERFORMER "Masumi Nagasawa"
ISRC NLQ661200049
INDEX 01 00:00:00
FILE "14 - Sonatina for harp solo No. 6 in E flat major, C. 165 - II. Tempo di menuetto.flac" WAVE
TRACK 14 AUDIO
TITLE "Sonatina for harp solo No. 6 in E flat major, C. 165 - II. Tempo di menuetto"
PERFORMER "Masumi Nagasawa"
ISRC NLQ661200050
INDEX 01 00:00:00
FILE "15 - A favorite English Ballad ''In the dead of the night'', C. 113.flac" WAVE
TRACK 15 AUDIO
TITLE "A favorite English Ballad ''In the dead of the night'', C. 113"
PERFORMER "Masumi Nagasawa"
ISRC NLQ661200050
INDEX 01 00:00:00
FILE "16 - Favorite Andante & Rondo dedicated to Lady Lowther - Larghetto con esprssione -.flac" WAVE
TRACK 16 AUDIO
TITLE "Favorite Andante & Rondo dedicated to Lady Lowther - Larghetto con esprssione -"
PERFORMER "Masumi Nagasawa"
ISRC NLQ661200052
INDEX 01 00:00:00
FILE "17 - Favorite Andante & Rondo dedicated to Lady Lowther - Rondo. Allegretto.flac" WAVE
TRACK 17 AUDIO
TITLE "Favorite Andante & Rondo dedicated to Lady Lowther - Rondo. Allegretto"
PERFORMER "Masumi Nagasawa"
ISRC NLQ661200053
INDEX 01 00:00:00

CD 2.

REM GENRE "Chamber Music"
REM DATE 2012
REM DISCID 180EF015
REM COMMENT "ExactAudioCopy v1.0b3"
PERFORMER "Masumi Nagasawa"
TITLE "Madame et Monssieur Dussek Disc 2"
FILE "01 - Three Sonatas, Op. 2 - Book 1 - Sonata No. 1 in B flat major - I. Allegro moderato.flac" WAVE
TRACK 01 AUDIO
TITLE "Three Sonatas, Op. 2 - Book 1 - Sonata No. 1 in B flat major - I. Allegro moderato"
PERFORMER "Masumi Nagasawa"
ISRC NLQ661200054
INDEX 01 00:00:00
FILE "02 - Three Sonatas, Op. 2 - Book 1 - Sonata No. 1 in B flat major - II. Andante.flac" WAVE
TRACK 02 AUDIO
TITLE "Three Sonatas, Op. 2 - Book 1 - Sonata No. 1 in B flat major - II. Andante"
PERFORMER "Masumi Nagasawa"
ISRC NLQ661200055
INDEX 01 00:00:00
FILE "03 - Three Sonatas, Op. 2 - Book 1 - Sonata No. 1 in B flat major - III. Rondo. Allegro.flac" WAVE
TRACK 03 AUDIO
TITLE "Three Sonatas, Op. 2 - Book 1 - Sonata No. 1 in B flat major - III. Rondo. Allegro"
PERFORMER "Masumi Nagasawa"
ISRC NLQ661200056
INDEX 01 00:00:00
FILE "04 - Three Sonatas, Op. 2 - Book 1 - Sonata No. 2 in G major - I. Allegro moderato.flac" WAVE
TRACK 04 AUDIO
TITLE "Three Sonatas, Op. 2 - Book 1 - Sonata No. 2 in G major - I. Allegro moderato"
PERFORMER "Masumi Nagasawa"
ISRC NLQ661200057
INDEX 01 00:00:00
FILE "05 - Three Sonatas, Op. 2 - Book 1 - Sonata No. 2 in G major - II. Andante.flac" WAVE
TRACK 05 AUDIO
TITLE "Three Sonatas, Op. 2 - Book 1 - Sonata No. 2 in G major - II. Andante"
PERFORMER "Masumi Nagasawa"
ISRC NLQ661200057
INDEX 01 00:00:00
FILE "06 - Three Sonatas, Op. 2 - Book 1 - Sonata No. 2 in G major - III. Rondo. Allegro moderato.flac" WAVE
TRACK 06 AUDIO
TITLE "Three Sonatas, Op. 2 - Book 1 - Sonata No. 2 in G major - III. Rondo. Allegro moderato"
PERFORMER "Masumi Nagasawa"
ISRC NLQ661200058
INDEX 01 00:00:00
FILE "07 - Three Sonatas, Op. 2 - Book 1 - Sonata No. 3 in C minor - I. Allegro moderato.flac" WAVE
TRACK 07 AUDIO
TITLE "Three Sonatas, Op. 2 - Book 1 - Sonata No. 3 in C minor - I. Allegro moderato"
PERFORMER "Masumi Nagasawa"
ISRC NLQ661200060
INDEX 01 00:00:00
FILE "08 - Three Sonatas, Op. 2 - Book 1 - Sonata No. 3 in C minor - II. Andantino.flac" WAVE
TRACK 08 AUDIO
TITLE "Three Sonatas, Op. 2 - Book 1 - Sonata No. 3 in C minor - II. Andantino"
PERFORMER "Masumi Nagasawa"
ISRC NLQ661200061
INDEX 01 00:00:00
FILE "09 - Three Sonatas, Op. 2 - Book 1 - Sonata No. 3 in C minor - III. Rondo. Allegro.flac" WAVE
TRACK 09 AUDIO
TITLE "Three Sonatas, Op. 2 - Book 1 - Sonata No. 3 in C minor - III. Rondo. Allegro"
PERFORMER "Masumi Nagasawa"
ISRC NLQ661200062
INDEX 01 00:00:00
FILE "10 - Three Sonatas, Op. 2 - Book 2 - Sonata No. 1 in E flat major - I. Allegro maestoso.flac" WAVE
TRACK 10 AUDIO
TITLE "Three Sonatas, Op. 2 - Book 2 - Sonata No. 1 in E flat major - I. Allegro maestoso"
PERFORMER "Masumi Nagasawa"
ISRC NLQ661200063
INDEX 01 00:00:00
FILE "11 - Three Sonatas, Op. 2 - Book 2 - Sonata No. 1 in E flat major - II. 'Lochaber'. Andante.flac" WAVE
TRACK 11 AUDIO
TITLE "Three Sonatas, Op. 2 - Book 2 - Sonata No. 1 in E flat major - II. 'Lochaber'. Andante"
PERFORMER "Masumi Nagasawa"
ISRC NLQ661200064
INDEX 01 00:00:00
FILE "12 - Three Sonatas, Op. 2 - Book 2 - Sonata No. 1 in E flat major - III. Rondo. Allegretto.flac" WAVE
TRACK 12 AUDIO
TITLE "Three Sonatas, Op. 2 - Book 2 - Sonata No. 1 in E flat major - III. Rondo. Allegretto"
PERFORMER "Masumi Nagasawa"
ISRC NLQ661200065
INDEX 01 00:00:00
FILE "13 - Three Sonatas, Op. 2 - Book 2 - Sonata No. 2 in F major - I. Allegro assai.flac" WAVE
TRACK 13 AUDIO
TITLE "Three Sonatas, Op. 2 - Book 2 - Sonata No. 2 in F major - I. Allegro assai"
PERFORMER "Masumi Nagasawa"
ISRC NLQ661200066
INDEX 01 00:00:00
FILE "14 - Three Sonatas, Op. 2 - Book 2 - Sonata No. 2 in F major - II. Larghetto con espressione.flac" WAVE
TRACK 14 AUDIO
TITLE "Three Sonatas, Op. 2 - Book 2 - Sonata No. 2 in F major - II. Larghetto con espressione"
PERFORMER "Masumi Nagasawa"
ISRC NLQ661200067
INDEX 01 00:00:00
FILE "15 - Three Sonatas, Op. 2 - Book 2 - Sonata No. 2 in F major - III. Allegretto.flac" WAVE
TRACK 15 AUDIO
TITLE "Three Sonatas, Op. 2 - Book 2 - Sonata No. 2 in F major - III. Allegretto"
PERFORMER "Masumi Nagasawa"
ISRC NLQ661200068
INDEX 01 00:00:00
FILE "16 - Three Sonatas, Op. 2 - Book 2 - Sonata No. 3 in C major - I. Allegretto.flac" WAVE
TRACK 16 AUDIO
TITLE "Three Sonatas, Op. 2 - Book 2 - Sonata No. 3 in C major - I. Allegretto"
PERFORMER "Masumi Nagasawa"
ISRC NLQ661200069
INDEX 01 00:00:00
FILE "17 - Three Sonatas, Op. 2 - Book 2 - Sonata No. 3 in C major - II. Andante con espressione.flac" WAVE
TRACK 17 AUDIO
TITLE "Three Sonatas, Op. 2 - Book 2 - Sonata No. 3 in C major - II. Andante con espressione"
PERFORMER "Masumi Nagasawa"
ISRC NLQ661200070
INDEX 01 00:00:00
FILE "18 - Three Sonatas, Op. 2 - Book 2 - Sonata No. 3 in C major - III. Rondo. 'Caledonian Hunt'. Allegro.flac" WAVE
TRACK 18 AUDIO
TITLE "Three Sonatas, Op. 2 - Book 2 - Sonata No. 3 in C major - III. Rondo. 'Caledonian Hunt'. Allegro"
PERFORMER "Masumi Nagasawa"
ISRC NLQ661200071
INDEX 01 00:00:00
FILE "19 - Sicilian Air ''Home, Sweet Home''.flac" WAVE
TRACK 19 AUDIO
TITLE "Sicilian Air ''Home, Sweet Home''"
PERFORMER "Masumi Nagasawa"
ISRC NLQ661200072
INDEX 01 00:00:00
FILE "20 - Dussek's Concerto without acccompaniment - I. Allegro con brio.flac" WAVE
TRACK 20 AUDIO
TITLE "Dussek's Concerto without acccompaniment - I. Allegro con brio"
PERFORMER "Masumi Nagasawa"
ISRC NLQ661200082
INDEX 01 00:00:00
FILE "21 - Dussek's Concerto without acccompaniment - II. Rondo. Allegretto moderato.flac" WAVE
TRACK 21 AUDIO
TITLE "Dussek's Concerto without acccompaniment - II. Rondo. Allegretto moderato"
PERFORMER "Masumi Nagasawa"
ISRC NLQ661200082
INDEX 01 00:00:00

Вариант индексной карты (.CUE) с исправленными зазорамиCD 1.

REM GENRE "Chamber Music"
REM DATE 2011
REM DISCID CD0DDD11
REM COMMENT "ExactAudioCopy v1.0b3"
PERFORMER "Masumi Nagasawa"
TITLE "Madame et Monssieur Dussek Disc 1"
FILE "01 - Sonata for harp solo in B flat major, Op. 34 no. 2 - I. Allegro con spirito.flac" WAVE
TRACK 01 AUDIO
TITLE "Sonata for harp solo in B flat major, Op. 34 no. 2 - I. Allegro con spirito"
PERFORMER "Masumi Nagasawa"
ISRC NLQ661200037
INDEX 00 00:00:00
INDEX 01 00:00:41
FILE "02 - Sonata for harp solo in B flat major, Op. 34 no. 2 - II. Rondo. Andantino con moto.flac" WAVE
TRACK 02 AUDIO
TITLE "Sonata for harp solo in B flat major, Op. 34 no. 2 - II. Rondo. Andantino con moto"
PERFORMER "Masumi Nagasawa"
ISRC NLQ661200038
INDEX 01 00:00:00
TRACK 03 AUDIO
INDEX 00 05:05:13
FILE "03 - Sonatina for harp solo No. 1 in C major, C. 160 - I. Andante con moto.flac" WAVE
TITLE "Sonatina for harp solo No. 1 in C major, C. 160 - I. Andante con moto"
PERFORMER "Masumi Nagasawa"
ISRC NLQ661200038
INDEX 01 00:00:00
FILE "04 - Sonatina for harp solo No. 1 in C major, C. 160 - II. Allegretto non tanto.flac" WAVE
TRACK 04 AUDIO
TITLE "Sonatina for harp solo No. 1 in C major, C. 160 - II. Allegretto non tanto"
PERFORMER "Masumi Nagasawa"
ISRC NLQ661200040
INDEX 01 00:00:00
TRACK 05 AUDIO
INDEX 00 02:01:73
FILE "05 - Sonatina for harp solo No. 2 in F major, C. 161 - I. Andante grazioso.flac" WAVE
TITLE "Sonatina for harp solo No. 2 in F major, C. 161 - I. Andante grazioso"
PERFORMER "Masumi Nagasawa"
ISRC NLQ661200041
INDEX 01 00:00:00
FILE "06 - Sonatina for harp solo No. 2 in F major, C. 161 - II. Allegro.flac" WAVE
TRACK 06 AUDIO
TITLE "Sonatina for harp solo No. 2 in F major, C. 161 - II. Allegro"
PERFORMER "Masumi Nagasawa"
ISRC NLQ661200042
INDEX 01 00:00:00
TRACK 07 AUDIO
INDEX 00 03:27:07
FILE "07 - Sonatina for harp solo No. 3 in G major, C. 162 - I. Andantino poco allegretto.flac" WAVE
TITLE "Sonatina for harp solo No. 3 in G major, C. 162 - I. Andantino poco allegretto"
PERFORMER "Masumi Nagasawa"
ISRC NLQ661200043
INDEX 01 00:00:00
FILE "08 - Sonatina for harp solo No. 3 in G major, C. 162 - II. Allegro non tanto.flac" WAVE
TRACK 08 AUDIO
TITLE "Sonatina for harp solo No. 3 in G major, C. 162 - II. Allegro non tanto"
PERFORMER "Masumi Nagasawa"
ISRC NLQ661200044
INDEX 01 00:00:00
TRACK 09 AUDIO
INDEX 00 02:09:72
FILE "09 - Sonatina for harp solo No. 4 in B flat major, C. 163 - I. Larghetto con espressione.flac" WAVE
TITLE "Sonatina for harp solo No. 4 in B flat major, C. 163 - I. Larghetto con espressione"
PERFORMER "Masumi Nagasawa"
ISRC NLQ661200045
INDEX 01 00:00:00
FILE "10 - Sonatina for harp solo No. 4 in B flat major, C. 163 - II. Rondo. Allegretto.flac" WAVE
TRACK 10 AUDIO
TITLE "Sonatina for harp solo No. 4 in B flat major, C. 163 - II. Rondo. Allegretto"
PERFORMER "Masumi Nagasawa"
ISRC NLQ661200046
INDEX 01 00:00:00
TRACK 11 AUDIO
INDEX 00 02:29:44
FILE "11 - Sonatina for harp solo No. 5 in F major, C. 164 - I. Larghetto.flac" WAVE
TITLE "Sonatina for harp solo No. 5 in F major, C. 164 - I. Larghetto"
PERFORMER "Masumi Nagasawa"
ISRC NLQ661200047
INDEX 01 00:00:00
FILE "12 - Sonatina for harp solo No. 5 in F major, C. 164 - II. Rondo. Allegretto.flac" WAVE
TRACK 12 AUDIO
TITLE "Sonatina for harp solo No. 5 in F major, C. 164 - II. Rondo. Allegretto"
PERFORMER "Masumi Nagasawa"
ISRC NLQ661200048
INDEX 01 00:00:00
TRACK 13 AUDIO
INDEX 00 02:06:18
FILE "13 - Sonatina for harp solo No. 6 in E flat major, C. 165 - I. Adagio.flac" WAVE
TITLE "Sonatina for harp solo No. 6 in E flat major, C. 165 - I. Adagio"
PERFORMER "Masumi Nagasawa"
ISRC NLQ661200049
INDEX 01 00:00:00
FILE "14 - Sonatina for harp solo No. 6 in E flat major, C. 165 - II. Tempo di menuetto.flac" WAVE
TRACK 14 AUDIO
TITLE "Sonatina for harp solo No. 6 in E flat major, C. 165 - II. Tempo di menuetto"
PERFORMER "Masumi Nagasawa"
ISRC NLQ661200050
INDEX 01 00:00:00
TRACK 15 AUDIO
INDEX 00 01:52:09
FILE "15 - A favorite English Ballad ''In the dead of the night'', C. 113.flac" WAVE
TITLE "A favorite English Ballad ''In the dead of the night'', C. 113"
PERFORMER "Masumi Nagasawa"
ISRC NLQ661200050
INDEX 01 00:00:00
TRACK 16 AUDIO
INDEX 00 05:20:59
FILE "16 - Favorite Andante & Rondo dedicated to Lady Lowther - Larghetto con esprssione -.flac" WAVE
TITLE "Favorite Andante & Rondo dedicated to Lady Lowther - Larghetto con esprssione -"
PERFORMER "Masumi Nagasawa"
ISRC NLQ661200052
INDEX 01 00:00:00
FILE "17 - Favorite Andante & Rondo dedicated to Lady Lowther - Rondo. Allegretto.flac" WAVE
TRACK 17 AUDIO
TITLE "Favorite Andante & Rondo dedicated to Lady Lowther - Rondo. Allegretto"
PERFORMER "Masumi Nagasawa"
ISRC NLQ661200053
INDEX 01 00:00:00
INDEX 02 05:28:18



Показать сообщения:    

Текущее время: 07-Дек 23:19

Часовой пояс: UTC + 3


Вы не можете начинать темы
Вы не можете отвечать на сообщения
Вы не можете редактировать свои сообщения
Вы не можете удалять свои сообщения
Вы не можете голосовать в опросах
Вы не можете прикреплять файлы к сообщениям
Вы не можете скачивать файлы