(Classical, period) Дюссек – Дуэты с арфой / Dussek – Duets for harp & piano (Masumi Nagasawa & Richard Egarr) - 2012, FLAC (tracks+.cue) lossless


 

[Цитировать]

[DUSSEK: Vol. 2]
Дюссек – Дуэты с арфой / Dussek – Duets for harp & piano (Masumi Nagasawa & Richard Egarr)

Жанр: Classical, period
Страна-производитель диска: Нидерланды
Год издания диска: 2012
Издатель (лейбл): etcetera
Номер по каталогу: KTC 1436
Дата записи: ноябрь 2011 г., Амстердам
Аудиокодек: FLAC
Тип рипа: tracks+.cue
Битрейт аудио: lossless
Продолжительность: 01:11:13
Источник: duckjammy на MIMC
Наличие сканов в содержимом раздачи: да
Треклист:-Ян Ладислав Дюссек (1760 — 1812).-Концертный дуэт F-dur для арфы и фортепиано, op. 69 № 3 / op. 73, C. 234.
01. I. Allegro moderato [11:27].
02. II. Larghetto espressivo [06:32].
03. III. Rondo. Allegretto ma moderato [05:27].
Дуэттино C-dur для арфы и фортепиано, C. 189 (ок. 1802).
04. I. Allegretto moderato [02:38].
05. II. Rondo. Allegretto [03:02].
Дуэт F-dur для арфы и фортепиано, op. 26, C. 102 (1794).
06. I. Allegro [08:42].
07. II. Larghetto [02:28].
08. III. Rondo. Allegretto [05:28].
Концертный дуэт Es-dur для арфы и фортепиано, op. 69 № 2 (обработка сонаты для фортепиано в четыре руки, op. 72, 1810), C. 239.
09. I. Allegro maestoso [09:58].
10. II. Воспоминания (Les souvenirs). Larghetto affettuoso [04:15].
11. III. Allegro con brio [06:46].-София Жюстина Дюссек (урожд. Корри; 1775 — ок. 1831).-12. Интродукция и вальс Es-dur для арфы и фортепиано (оп. 1822) [04:24].-Исполнители:
Masumi Nagasawa (арфа, ок. 1815).
Richard Egarr (fortepiano, 1804).-

Лог создания рипа

Exact Audio Copy V1.0 beta 3 from 29. August 2011
EAC extraction logfile from 7. June 2015, 14:53
Masumi Nagasawa, Richard Egarr / Dussek - Duos for Harp and Piano Forte Vol. 2
Used drive : TSSTcorpCDDVDW SE-208DB Adapter: 1 ID: 0
Read mode : Secure
Utilize accurate stream : Yes
Defeat audio cache : Yes
Make use of C2 pointers : No
Read offset correction : 6
Overread into Lead-In and Lead-Out : No
Fill up missing offset samples with silence : Yes
Delete leading and trailing silent blocks : No
Null samples used in CRC calculations : Yes
Used interface : Native Win32 interface for Win NT & 2000
Gap handling : Appended to previous track
Used output format : User Defined Encoder
Selected bitrate : 1024 kBit/s
Quality : High
Add ID3 tag : No
Command line compressor : C:\Program Files (x86)\Exact Audio Copy\FLAC\FLAC.EXE
Additional command line options : -8 -V -T "ARTIST=%artist%" -T "TITLE=%title%" -T "ALBUM=%albumtitle%" -T "DATE=%year%" -T "TRACKNUMBER=%tracknr%" -T "GENRE=%genre%" -T "PERFORMER=%albuminterpret%" -T "COMPOSER=%composer%" %haslyrics%--tag-from-file=LYRICS="%lyricsfile%"%haslyrics% -T "ALBUMARTIST=%albumartist%" -T "DISCNUMBER=%cdnumber%" -T "TOTALDISCS=%totalcds%" -T "TOTALTRACKS=%numduckjammytracks%" -T "COMMENT=%comment%" %source% -o %dest%
TOC of the extracted CD
Track | Start | Length | Start sector | End sector
---------------------------------------------------------
1 | 0:00.00 | 11:27.39 | 0 | 51563
2 | 11:27.39 | 6:32.49 | 51564 | 81012
3 | 18:00.13 | 5:27.30 | 81013 | 105567
4 | 23:27.43 | 2:38.10 | 105568 | 117427
5 | 26:05.53 | 3:02.36 | 117428 | 131113
6 | 29:08.14 | 8:42.27 | 131114 | 170290
7 | 37:50.41 | 2:28.56 | 170291 | 181446
8 | 40:19.22 | 5:28.29 | 181447 | 206075
9 | 45:47.51 | 9:58.40 | 206076 | 250965
10 | 55:46.16 | 4:15.49 | 250966 | 270139
11 | 60:01.65 | 6:46.48 | 270140 | 300637
12 | 66:48.38 | 4:24.48 | 300638 | 320485
Track 1
Filename C:\E\01 - Duo Concertant pour la Harpe et le Piano Forte op.73 in F major - 1. Allegro Moderato.wav
Pre-gap length 0:00:02.00
Peak level 94.7 %
Extraction speed 3.1 X
Track quality 100.0 %
Test CRC C01171C5
Copy CRC C01171C5
Accurately ripped (confidence 2) [CBA92835] (AR v2)
Copy OK
Track 2
Filename C:\E\02 - - 2. Larghetto Espressivo.wav
Peak level 95.3 %
Extraction speed 3.3 X
Track quality 100.0 %
Test CRC 4C7C0C90
Copy CRC 4C7C0C90
Accurately ripped (confidence 2) [8A85FB68] (AR v2)
Copy OK
Track 3
Filename C:\E\03 - - 3. Rondo Allegretto ma Moderato.wav
Peak level 95.1 %
Extraction speed 3.5 X
Track quality 100.0 %
Test CRC 0A7D8C7C
Copy CRC 0A7D8C7C
Accurately ripped (confidence 2) [55A64755] (AR v2)
Copy OK
Track 4
Filename C:\E\04 - Duettino for the Harp and Piano Forte - 1. Allegretto Moderato.wav
Peak level 70.8 %
Extraction speed 3.5 X
Track quality 100.0 %
Test CRC 84B55612
Copy CRC 84B55612
Accurately ripped (confidence 2) [87C1E0F2] (AR v2)
Copy OK
Track 5
Filename C:\E\05 - - 2. Rondo Allegretto.wav
Peak level 93.3 %
Extraction speed 3.7 X
Track quality 100.0 %
Test CRC 68A7670C
Copy CRC 68A7670C
Accurately ripped (confidence 2) [39FAD792] (AR v2)
Copy OK
Track 6
Filename C:\E\06 - Duetto for the Harp & Piano Forte op.26 in F major - 1. Allegro.wav
Peak level 98.5 %
Extraction speed 4.2 X
Track quality 100.0 %
Test CRC BF952BDB
Copy CRC BF952BDB
Accurately ripped (confidence 2) [7E69C161] (AR v2)
Copy OK
Track 7
Filename C:\E\07 - - 2. Larghetto.wav
Peak level 58.2 %
Extraction speed 2.6 X
Track quality 99.9 %
Test CRC 9003955F
Copy CRC 9003955F
Accurately ripped (confidence 2) [83CA58DD] (AR v2)
Copy OK
Track 8
Filename C:\E\08 - - 3. Rondo Allegretto.wav
Peak level 94.6 %
Extraction speed 4.0 X
Track quality 100.0 %
Test CRC E9124837
Copy CRC E9124837
Accurately ripped (confidence 2) [D15B4CE7] (AR v2)
Copy OK
Track 9
Filename C:\E\09 - Duo Concertant pour la Harpe et le Piano Forte op.72 in E flat major - 1. Allegro Maestoso.wav
Peak level 94.6 %
Extraction speed 4.8 X
Track quality 100.0 %
Test CRC 333A6B1B
Copy CRC 333A6B1B
Accurately ripped (confidence 2) [B07B766E] (AR v2)
Copy OK
Track 10
Filename C:\E\10 - - 2. Larghetto Affettuoso 'Les Souvenirs'.wav
Peak level 51.3 %
Extraction speed 3.7 X
Track quality 99.9 %
Test CRC 9655EAC6
Copy CRC 9655EAC6
Accurately ripped (confidence 2) [C2E64E6B] (AR v2)
Copy OK
Track 11
Filename C:\E\11 - - 3. Rondo Allegro con Brio.wav
Peak level 88.0 %
Extraction speed 4.3 X
Track quality 100.0 %
Test CRC 88968D31
Copy CRC 88968D31
Accurately ripped (confidence 2) [56801F8D] (AR v2)
Copy OK
Track 12
Filename C:\E\12 - Sophia Giustina Dussek-Corri- Introduction and Waltz for the Harp and Piano Forte.wav
Peak level 89.4 %
Extraction speed 3.7 X
Track quality 99.9 %
Test CRC 8E9A92B9
Copy CRC 8E9A92B9
Accurately ripped (confidence 2) [43E5F45B] (AR v2)
Copy OK
All tracks accurately ripped
No errors occurred
End of status report
==== Log checksum 6746AB8B32991DD8ED70208B2EDD740EF82B327E6AA5DDD6A5109E63E63FA0F1 ====

Содержание индексной карты (.CUE)

REM GENRE Classical
REM DATE 2012
REM DISCID A110B10C
REM COMMENT "ExactAudioCopy v1.0b3"
PERFORMER "Masumi Nagasawa & Richard Egarr"
TITLE "Dussek - Duos for Harp and Piano Forte Vol. 2"
FILE "01 - Duo Concertant in F major for harp & piano, Op. 73 - I. Allegro moderato.flac" WAVE
TRACK 01 AUDIO
TITLE "Duo Concertant in F major for harp & piano, Op. 73 - I. Allegro moderato"
PERFORMER "Masumi Nagasawa & Richard Egarr"
ISRC NLQ661200159
INDEX 01 00:00:00
FILE "02 - Duo Concertant in F major for harp & piano, Op. 73 - II. Larghetto espressivo.flac" WAVE
TRACK 02 AUDIO
TITLE "Duo Concertant in F major for harp & piano, Op. 73 - II. Larghetto espressivo"
PERFORMER "Masumi Nagasawa & Richard Egarr"
ISRC NLQ661200159
INDEX 01 00:00:00
FILE "03 - Duo Concertant in F major for harp & piano, Op. 73 - III. Rondo. Allegretto ma moderato.flac" WAVE
TRACK 03 AUDIO
TITLE "Duo Concertant in F major for harp & piano, Op. 73 - III. Rondo. Allegretto ma moderato"
PERFORMER "Masumi Nagasawa & Richard Egarr"
ISRC NLQ661200161
INDEX 01 00:00:00
FILE "04 - Duettino in C major for harp & piano, C. 189 - I. Allegretto moderato.flac" WAVE
TRACK 04 AUDIO
TITLE "Duettino in C major for harp & piano, C. 189 - I. Allegretto moderato"
PERFORMER "Masumi Nagasawa & Richard Egarr"
ISRC NLQ661200162
INDEX 01 00:00:00
FILE "05 - Duettino in C major for harp & piano, C. 189 - II. Rondo. Allegretto.flac" WAVE
TRACK 05 AUDIO
TITLE "Duettino in C major for harp & piano, C. 189 - II. Rondo. Allegretto"
PERFORMER "Masumi Nagasawa & Richard Egarr"
ISRC NLQ661200163
INDEX 01 00:00:00
FILE "06 - Duetto in F major for harp & piano, Op. 26 - I. Allegro.flac" WAVE
TRACK 06 AUDIO
TITLE "Duetto in F major for harp & piano, Op. 26 - I. Allegro"
PERFORMER "Masumi Nagasawa & Richard Egarr"
ISRC NLQ661200164
INDEX 01 00:00:00
FILE "07 - Duetto in F major for harp & piano, Op. 26 - II. Larghetto.flac" WAVE
TRACK 07 AUDIO
TITLE "Duetto in F major for harp & piano, Op. 26 - II. Larghetto"
PERFORMER "Masumi Nagasawa & Richard Egarr"
ISRC NLQ661200165
INDEX 01 00:00:00
FILE "08 - Duetto in F major for harp & piano, Op. 26 - III. Rondo. Allegretto.flac" WAVE
TRACK 08 AUDIO
TITLE "Duetto in F major for harp & piano, Op. 26 - III. Rondo. Allegretto"
PERFORMER "Masumi Nagasawa & Richard Egarr"
ISRC NLQ661200166
INDEX 01 00:00:00
FILE "09 - Duo Concertant in E flat major for harp & piano, Op. 72 - I. Allegro maestoso.flac" WAVE
TRACK 09 AUDIO
TITLE "Duo Concertant in E flat major for harp & piano, Op. 72 - I. Allegro maestoso"
PERFORMER "Masumi Nagasawa & Richard Egarr"
ISRC NLQ661200167
INDEX 01 00:00:00
FILE "10 - Duo Concertant in E flat major for harp & piano, Op. 72 - II. Les souvenirs. Larghetto affettuoso.flac" WAVE
TRACK 10 AUDIO
TITLE "Duo Concertant in E flat major for harp & piano, Op. 72 - II. Les souvenirs. Larghetto affettuoso"
PERFORMER "Masumi Nagasawa & Richard Egarr"
ISRC NLQ661200168
INDEX 01 00:00:00
FILE "11 - Duo Concertant in E flat major for harp & piano, Op. 72 - III. Rondo. Allegro con brio.flac" WAVE
TRACK 11 AUDIO
TITLE "Duo Concertant in E flat major for harp & piano, Op. 72 - III. Rondo. Allegro con brio"
PERFORMER "Masumi Nagasawa & Richard Egarr"
ISRC NLQ661200169
INDEX 01 00:00:00
FILE "12 - Sophia Giustina Dussek-Corri - Introduction and Waltz for harp & piano.flac" WAVE
TRACK 12 AUDIO
TITLE "Sophia Giustina Dussek-Corri - Introduction and Waltz for harp & piano"
PERFORMER "Masumi Nagasawa & Richard Egarr"
ISRC NLQ661200170
INDEX 01 00:00:00

Вариант индексной карты (.CUE) с сокращенными зазорами

REM GENRE Classical
REM DATE 2012
REM DISCID A110B10C
REM COMMENT "ExactAudioCopy v1.0b3"
PERFORMER "Masumi Nagasawa & Richard Egarr"
TITLE "Dussek - Duos for Harp and Piano Forte Vol. 2"
FILE "01 - Duo Concertant in F major for harp & piano, Op. 73 - I. Allegro moderato.flac" WAVE
TRACK 01 AUDIO
TITLE "Duo Concertant in F major for harp & piano, Op. 73 - I. Allegro moderato"
PERFORMER "Masumi Nagasawa & Richard Egarr"
ISRC NLQ661200159
INDEX 00 00:00:00
INDEX 01 00:00:58
TRACK 02 AUDIO
INDEX 00 11:25:21
FILE "02 - Duo Concertant in F major for harp & piano, Op. 73 - II. Larghetto espressivo.flac" WAVE
TITLE "Duo Concertant in F major for harp & piano, Op. 73 - II. Larghetto espressivo"
PERFORMER "Masumi Nagasawa & Richard Egarr"
ISRC NLQ661200159
INDEX 01 00:00:00
FILE "03 - Duo Concertant in F major for harp & piano, Op. 73 - III. Rondo. Allegretto ma moderato.flac" WAVE
TRACK 03 AUDIO
TITLE "Duo Concertant in F major for harp & piano, Op. 73 - III. Rondo. Allegretto ma moderato"
PERFORMER "Masumi Nagasawa & Richard Egarr"
ISRC NLQ661200161
INDEX 01 00:00:00
TRACK 04 AUDIO
INDEX 00 05:23:62
FILE "04 - Duettino in C major for harp & piano, C. 189 - I. Allegretto moderato.flac" WAVE
TITLE "Duettino in C major for harp & piano, C. 189 - I. Allegretto moderato"
PERFORMER "Masumi Nagasawa & Richard Egarr"
ISRC NLQ661200162
INDEX 01 00:00:00
FILE "05 - Duettino in C major for harp & piano, C. 189 - II. Rondo. Allegretto.flac" WAVE
TRACK 05 AUDIO
TITLE "Duettino in C major for harp & piano, C. 189 - II. Rondo. Allegretto"
PERFORMER "Masumi Nagasawa & Richard Egarr"
ISRC NLQ661200163
INDEX 01 00:00:00
TRACK 06 AUDIO
INDEX 00 02:59:60
FILE "06 - Duetto in F major for harp & piano, Op. 26 - I. Allegro.flac" WAVE
TITLE "Duetto in F major for harp & piano, Op. 26 - I. Allegro"
PERFORMER "Masumi Nagasawa & Richard Egarr"
ISRC NLQ661200164
INDEX 01 00:00:00
FILE "07 - Duetto in F major for harp & piano, Op. 26 - II. Larghetto.flac" WAVE
TRACK 07 AUDIO
TITLE "Duetto in F major for harp & piano, Op. 26 - II. Larghetto"
PERFORMER "Masumi Nagasawa & Richard Egarr"
ISRC NLQ661200165
INDEX 01 00:00:00
FILE "08 - Duetto in F major for harp & piano, Op. 26 - III. Rondo. Allegretto.flac" WAVE
TRACK 08 AUDIO
TITLE "Duetto in F major for harp & piano, Op. 26 - III. Rondo. Allegretto"
PERFORMER "Masumi Nagasawa & Richard Egarr"
ISRC NLQ661200166
INDEX 01 00:00:00
TRACK 09 AUDIO
INDEX 00 05:23:31
FILE "09 - Duo Concertant in E flat major for harp & piano, Op. 72 - I. Allegro maestoso.flac" WAVE
TITLE "Duo Concertant in E flat major for harp & piano, Op. 72 - I. Allegro maestoso"
PERFORMER "Masumi Nagasawa & Richard Egarr"
ISRC NLQ661200167
INDEX 01 00:00:00
TRACK 10 AUDIO
INDEX 00 09:56:22
FILE "10 - Duo Concertant in E flat major for harp & piano, Op. 72 - II. Les souvenirs. Larghetto affettuoso.flac" WAVE
TITLE "Duo Concertant in E flat major for harp & piano, Op. 72 - II. Les souvenirs. Larghetto affettuoso"
PERFORMER "Masumi Nagasawa & Richard Egarr"
ISRC NLQ661200168
INDEX 01 00:00:00
FILE "11 - Duo Concertant in E flat major for harp & piano, Op. 72 - III. Rondo. Allegro con brio.flac" WAVE
TRACK 11 AUDIO
TITLE "Duo Concertant in E flat major for harp & piano, Op. 72 - III. Rondo. Allegro con brio"
PERFORMER "Masumi Nagasawa & Richard Egarr"
ISRC NLQ661200169
INDEX 01 00:00:00
TRACK 12 AUDIO
INDEX 00 06:43:68
FILE "12 - Sophia Giustina Dussek-Corri - Introduction and Waltz for harp & piano.flac" WAVE
TITLE "Sophia Giustina Dussek-Corri - Introduction and Waltz for harp & piano"
PERFORMER "Masumi Nagasawa & Richard Egarr"
ISRC NLQ661200170
INDEX 01 00:00:00
INDEX 02 04:21:42



Показать сообщения:    

Текущее время: 11-Дек 05:19

Часовой пояс: UTC + 3


Вы не можете начинать темы
Вы не можете отвечать на сообщения
Вы не можете редактировать свои сообщения
Вы не можете удалять свои сообщения
Вы не можете голосовать в опросах
Вы не можете прикреплять файлы к сообщениям
Вы не можете скачивать файлы