Дурная кровь / Mauvais Sang (Леос Каракс / Leos Carax) [1986, Франция, драма, HDRip] MVO (СТС) + VO + Sub Rus, Eng + Original Fre


 

[Цитировать]

Дурная кровь / Mauvais Sang
Страна: Франция
Жанр: драма
Год выпуска: 1986
Продолжительность: 01:59:02
Перевод: Профессиональный (многоголосый закадровый) - СТС
Перевод: Профессиональный (одноголосый закадровый) - Владимир Антоник
Cубтитры: русские, английские
Оригинальная аудиодорожка: французский

Режиссер: Леос Каракс / Leos Carax
В ролях: Дени Лаван, Жюльет Бинош, Жюли Дельпи, Мишель Пикколи, Ханс Мейер, Кэрролл Брукс, Хуго Пратт, Мирей Перье, Серж Реджиани, Жером Зукка
Описание: Мир, сошедший с ума, приближающаяся комета, необычайная волна самоубийств, новый вирус, отсутствие любви, жара, комета, жара, жара… Все это как пелена, окутывает, захватывает, реальность теряется в тумане, остаются только отражения и миражи… Мы знаем, что действие происходит в Париже, но это просто марка, название… Главный герой фильма — Алекс - также нереален, как и то, что его окружает. Его внешность, пластика, сверхъестественные способности — ловкие руки и чревовещание — все это признаки какого-то инобытия, пришедшего или из сказки, или из ночного кошмара… Каждая его фраза — афоризм, полный множества смыслов... Его движения скованы, сконцентрированы в одной точке. По его словам, эта точка — его живот, полный бетона - мешает ему двигаться, не дает «почувствовать улыбку скорости». Эта тяжесть тянет к земле, не дает ничего менять…
Качество видео: HDRip
Формат видео: AVI
Видео: 720x432 (1.67:1), 23.976 fps, XviD build 73 ~1550 kbps avg, 0.21 bit/pixel
Аудио: 48 kHz, AC3 Dolby Digital, 2/0 (L,R) ch, ~192 kbps - многоголосый
отдельными файлами:
Аудио: 48 kHz, AC3 Dolby Digital, 1 ch, ~192 kbps - одноголосый
Аудио: 48 kHz, AC3 Dolby Digital, 1 ch, ~192 kbps - оригинал

MediaInfo

Общее
Полное имя : H:\Mauvais.Sang.1986.hdrip_[1.46]_[teko]\Mauvais.Sang.1986.hdrip_[1.46].avi
Формат : AVI
Формат/Информация : Audio Video Interleave
Размер файла : 1,46 Гбайт
Продолжительность : 1 ч. 59 м.
Общий поток : 1752 Кбит/сек
Программа кодирования : VirtualDubMod 1.5.10.3 | www.virtualdub-fr.org || (build 2550/release)
Библиотека кодирования : VirtualDubMod build 2550/release
Видео
Идентификатор : 0
Формат : MPEG-4 Visual
Профиль формата : Advanced Simple@L5
Параметр BVOP формата : 1
Параметр QPel формата : Нет
Параметр GMC формата : Без точки перехода
Параметр матрицы формата : Выборочная
Идентификатор кодека : XVID
Идентификатор кодека/Подсказка : XviD
Продолжительность : 1 ч. 59 м.
Битрейт : 1551 Кбит/сек
Ширина : 720 пикселей
Высота : 432 пикселя
Соотношение сторон : 1,667
Частота кадров : 23,976 кадра/сек
Цветовое пространство : YUV
Субдискретизация насыщенности : 4:2:0
Битовая глубина : 8 бит
Тип развёртки : Прогрессивная
Метод сжатия : С потерями
Бит/(Пиксели*Кадры) : 0.208
Размер потока : 1,29 Гбайт (89%)
Библиотека кодирования : XviD 73
Аудио
Идентификатор : 1
Формат : AC-3
Формат/Информация : Audio Coding 3
Расширение режима : CM (complete main)
Параметр Endianness формата : Big
Идентификатор кодека : 2000
Продолжительность : 1 ч. 59 м.
Вид битрейта : Постоянный
Битрейт : 192 Кбит/сек
Каналы : 2 канала
Расположение каналов : Front: L R
Частота : 48,0 КГц
Битовая глубина : 16 бит
Метод сжатия : С потерями
Размер потока : 163 Мбайт (11%)
Выравнивание : Разделение по промежуткам
Продолжительность промежутка : 42 мс. (1,00 видеокадр)
Время предзагрузки промежутка : 500 мс.



Показать сообщения:    

Текущее время: 06-Дек 13:16

Часовой пояс: UTC + 3


Вы не можете начинать темы
Вы не можете отвечать на сообщения
Вы не можете редактировать свои сообщения
Вы не можете удалять свои сообщения
Вы не можете голосовать в опросах
Вы не можете прикреплять файлы к сообщениям
Вы не можете скачивать файлы