(Opera) Leo Delibes - Lakme / Лео Делиб - Лакме (Alain Lombard; Mady Mesple, Charles Burles, Roger Soyer, Danielle Millet, Jean-Christophe Benoit), 1970 - studio recording / 2002, FLAC (tracks+.cue), lossless


 

[Цитировать]

Leo Delibes - Lakme / Лео Делиб - Лакме (Alain Lombard; Mady Mesplé, Charles Burles, Roger Soyer, Danielle Millet, Jean-Christophe Benoît)
Жанр: Opera
Страна-производитель диска: CША
Год издания диска: 2002
Издатель (лейбл): EMI Classics
Дата записи: 1970
Аудиокодек: FLAC
Тип рипа: tracks+.cue
Битрейт аудио: lossless
Продолжительность: 02:29:44
Источник: релизер (jbglx)
Наличие сканов в содержимом раздачи: да
Исполнители:
Lakmé - Mady Mesplé,
Gerald - Charles Burles,
Nilakantha - Roger Soyer,
Mallika - Danielle Millet,
Frédéric - Jean-Christophe Benoît,
Miss Bentson - Agnès Disney.
Alain Lombard, conductor,
Théâtre de l’Opéra Comique Orchestra and Chorus.
Recorded at the Wagram Hall, Paris, France, 17-18, 21-25, 28-30 September, 1-2 October, 18, 21 December 1970.

Лог создания рипаЛог создания рипа CD 1

Exact Audio Copy V1.0 beta 3 from 29. August 2011
EAC extraction logfile from 12. July 2015, 10:58
Léo Delibes / Lakmé CD I
Used drive : SONY DVD RW DRU-840A Adapter: 0 ID: 1
Read mode : Secure
Utilize accurate stream : Yes
Defeat audio cache : Yes
Make use of C2 pointers : No
Read offset correction : 6
Overread into Lead-In and Lead-Out : No
Fill up missing offset samples with silence : Yes
Delete leading and trailing silent blocks : No
Null samples used in CRC calculations : Yes
Used interface : Native Win32 interface for Win NT & 2000
Gap handling : Not detected, thus appended to previous track
Used output format : User Defined Encoder
Selected bitrate : 320 kBit/s
Quality : High
Add ID3 tag : No
Command line compressor : C:\Archivos de programa\Exact Audio Copy\FLAC\FLAC.EXE
Additional command line options : -6 -V -T "ARTIST=%artist%" -T "TITLE=%title%" -T "ALBUM=%albumtitle%" -T "DATE=%year%" -T "TRACKNUMBER=%tracknr%" -T "GENRE=%genre%" -T "COMMENT=%comment%" -T "BAND=%albuminterpret%" -T "ALBUMARTIST=%albuminterpret%" -T "COMPOSER=%composer%" %haslyrics%--tag-from-file=LYRICS="%lyricsfile%"%haslyrics% -T "DISCNUMBER=%cdnumber%" -T "TOTALDISCS=%totalcds%" -T "TOTALTRACKS=%numtracks%" %hascover%--picture="%coverfile%"%hascover% %source% -o %dest%
TOC of the extracted CD
Track | Start | Length | Start sector | End sector
---------------------------------------------------------
1 | 0:00.00 | 3:23.71 | 0 | 15295
2 | 3:23.71 | 3:03.01 | 15296 | 29021
3 | 6:26.72 | 4:03.11 | 29022 | 47257
4 | 10:30.08 | 3:14.56 | 47258 | 61863
5 | 13:44.64 | 1:06.46 | 61864 | 66859
6 | 14:51.35 | 4:44.61 | 66860 | 88220
7 | 19:36.21 | 2:30.41 | 88221 | 99511
8 | 22:06.62 | 5:01.15 | 99512 | 122101
9 | 27:08.02 | 1:24.05 | 122102 | 128406
10 | 28:32.07 | 1:36.38 | 128407 | 135644
11 | 30:08.45 | 3:36.29 | 135645 | 151873
12 | 33:44.74 | 3:14.65 | 151874 | 166488
13 | 36:59.64 | 1:07.36 | 166489 | 171549
14 | 38:07.25 | 3:22.68 | 171550 | 186767
15 | 41:30.18 | 0:54.23 | 186768 | 190840
16 | 42:24.41 | 4:06.08 | 190841 | 209298
17 | 46:30.49 | 3:44.27 | 209299 | 226125
18 | 50:15.01 | 1:44.19 | 226126 | 233944
19 | 51:59.20 | 1:14.70 | 233945 | 239564
20 | 53:14.15 | 2:01.28 | 239565 | 248667
21 | 55:15.43 | 2:29.19 | 248668 | 259861
22 | 57:44.62 | 1:00.44 | 259862 | 264405
23 | 58:45.31 | 0:26.26 | 264406 | 266381
24 | 59:11.57 | 1:47.22 | 266382 | 274428
25 | 60:59.04 | 1:05.39 | 274429 | 279342
26 | 62:04.43 | 1:45.40 | 279343 | 287257
27 | 63:50.08 | 1:01.73 | 287258 | 291905
28 | 64:52.06 | 0:42.14 | 291906 | 295069
29 | 65:34.20 | 3:40.29 | 295070 | 311598
30 | 69:14.49 | 1:50.36 | 311599 | 319884
31 | 71:05.10 | 4:11.00 | 319885 | 338709
Track 1
Filename E:\MUSIC\My Music\Delibes - Lakme\Delibes - Lakme - Mady Mesplé - Lombard - CD 1\CD\01 Prélude.wav
Peak level 98.3 %
Extraction speed 1.9 X
Track quality 100.0 %
Test CRC 8CCE4F9D
Copy CRC 8CCE4F9D
Track not present in AccurateRip database
Copy OK
Track 2
Filename E:\MUSIC\My Music\Delibes - Lakme\Delibes - Lakme - Mady Mesplé - Lombard - CD 1\CD\02 1. Akt - À l'heure accoutumée.wav
Peak level 84.8 %
Extraction speed 2.0 X
Track quality 100.0 %
Test CRC 19126C0B
Copy CRC 19126C0B
Track not present in AccurateRip database
Copy OK
Track 3
Filename E:\MUSIC\My Music\Delibes - Lakme\Delibes - Lakme - Mady Mesplé - Lombard - CD 1\CD\03 Blanche Dourga, pâle Siva !.wav
Peak level 81.6 %
Extraction speed 2.2 X
Track quality 100.0 %
Test CRC 6082ADD1
Copy CRC 6082ADD1
Track not present in AccurateRip database
Copy OK
Track 4
Filename E:\MUSIC\My Music\Delibes - Lakme\Delibes - Lakme - Mady Mesplé - Lombard - CD 1\CD\04 Lakmé, c'est toi qui nous protèges !.wav
Peak level 40.6 %
Extraction speed 2.3 X
Track quality 100.0 %
Test CRC E8566AD9
Copy CRC E8566AD9
Track not present in AccurateRip database
Copy OK
Track 5
Filename E:\MUSIC\My Music\Delibes - Lakme\Delibes - Lakme - Mady Mesplé - Lombard - CD 1\CD\05 Viens, Mallika.wav
Peak level 26.9 %
Extraction speed 1.8 X
Track quality 100.0 %
Test CRC 306BEFE3
Copy CRC 306BEFE3
Track not present in AccurateRip database
Copy OK
Track 6
Filename E:\MUSIC\My Music\Delibes - Lakme\Delibes - Lakme - Mady Mesplé - Lombard - CD 1\CD\06 Dôme épais le jasmin à la rose s'assemble.wav
Peak level 63.7 %
Extraction speed 2.1 X
Track quality 100.0 %
Test CRC D25D804A
Copy CRC D25D804A
Track not present in AccurateRip database
Copy OK
Track 7
Filename E:\MUSIC\My Music\Delibes - Lakme\Delibes - Lakme - Mady Mesplé - Lombard - CD 1\CD\07 Miss Rose, Miss Ellen, respectez les Clôtures !.wav
Peak level 70.4 %
Extraction speed 2.5 X
Track quality 100.0 %
Test CRC 5D5277E3
Copy CRC 5D5277E3
Track not present in AccurateRip database
Copy OK
Track 8
Filename E:\MUSIC\My Music\Delibes - Lakme\Delibes - Lakme - Mady Mesplé - Lombard - CD 1\CD\08 Quand une femme est si jolie.wav
Peak level 83.5 %
Extraction speed 2.9 X
Track quality 100.0 %
Test CRC D999BA05
Copy CRC D999BA05
Track not present in AccurateRip database
Copy OK
Track 9
Filename E:\MUSIC\My Music\Delibes - Lakme\Delibes - Lakme - Mady Mesplé - Lombard - CD 1\CD\09 Nous commettons un sacrilège.wav
Peak level 72.8 %
Extraction speed 2.3 X
Track quality 100.0 %
Test CRC 8F935B89
Copy CRC 8F935B89
Track not present in AccurateRip database
Copy OK
Track 10
Filename E:\MUSIC\My Music\Delibes - Lakme\Delibes - Lakme - Mady Mesplé - Lombard - CD 1\CD\10 Prendre le dessin d'un bijou.wav
Peak level 31.9 %
Extraction speed 2.4 X
Track quality 100.0 %
Test CRC E3361CE4
Copy CRC E3361CE4
Track not present in AccurateRip database
Copy OK
Track 11
Filename E:\MUSIC\My Music\Delibes - Lakme\Delibes - Lakme - Mady Mesplé - Lombard - CD 1\CD\11 Fantaisie aux divins mensonges.wav
Peak level 90.6 %
Extraction speed 3.0 X
Track quality 100.0 %
Test CRC 15577F91
Copy CRC 15577F91
Track not present in AccurateRip database
Copy OK
Track 12
Filename E:\MUSIC\My Music\Delibes - Lakme\Delibes - Lakme - Mady Mesplé - Lombard - CD 1\CD\12 Non ! je ne veux pas tocher.wav
Peak level 66.3 %
Extraction speed 2.2 X
Track quality 99.9 %
Test CRC 7B5EA089
Copy CRC 7B5EA089
Track not present in AccurateRip database
Copy OK
Track 13
Filename E:\MUSIC\My Music\Delibes - Lakme\Delibes - Lakme - Mady Mesplé - Lombard - CD 1\CD\13 Les fleurs me paraissent plus belles.wav
Peak level 62.6 %
Extraction speed 2.3 X
Track quality 100.0 %
Test CRC 321ECE68
Copy CRC 321ECE68
Track not present in AccurateRip database
Copy OK
Track 14
Filename E:\MUSIC\My Music\Delibes - Lakme\Delibes - Lakme - Mady Mesplé - Lombard - CD 1\CD\14 Pourquoi dans les grands bois.wav
Peak level 46.7 %
Extraction speed 3.2 X
Track quality 100.0 %
Test CRC AE2E7DF6
Copy CRC AE2E7DF6
Track not present in AccurateRip database
Copy OK
Track 15
Filename E:\MUSIC\My Music\Delibes - Lakme\Delibes - Lakme - Mady Mesplé - Lombard - CD 1\CD\15 Ah ! Mallika ! Mallika !.wav
Peak level 82.4 %
Extraction speed 2.2 X
Track quality 100.0 %
Test CRC E3472F3D
Copy CRC E3472F3D
Track not present in AccurateRip database
Copy OK
Track 16
Filename E:\MUSIC\My Music\Delibes - Lakme\Delibes - Lakme - Mady Mesplé - Lombard - CD 1\CD\16 D'où viens-tu Que veux-tu.wav
Peak level 79.1 %
Extraction speed 3.4 X
Track quality 100.0 %
Test CRC 1B42B88C
Copy CRC 1B42B88C
Track not present in AccurateRip database
Copy OK
Track 17
Filename E:\MUSIC\My Music\Delibes - Lakme\Delibes - Lakme - Mady Mesplé - Lombard - CD 1\CD\17 C'est le dieu de la jeunesse.wav
Peak level 83.4 %
Extraction speed 3.4 X
Track quality 100.0 %
Test CRC C0C657FE
Copy CRC C0C657FE
Track not present in AccurateRip database
Copy OK
Track 18
Filename E:\MUSIC\My Music\Delibes - Lakme\Delibes - Lakme - Mady Mesplé - Lombard - CD 1\CD\18 Viens ! là ! là !.wav
Peak level 83.5 %
Extraction speed 1.7 X
Track quality 99.8 %
Test CRC E784C1B9
Copy CRC E784C1B9
Track not present in AccurateRip database
Copy OK
Track 19
Filename E:\MUSIC\My Music\Delibes - Lakme\Delibes - Lakme - Mady Mesplé - Lombard - CD 1\CD\19 2. Akt - Entracte.wav
Peak level 94.5 %
Extraction speed 2.7 X
Track quality 100.0 %
Test CRC 07199503
Copy CRC 07199503
Track not present in AccurateRip database
Copy OK
Track 20
Filename E:\MUSIC\My Music\Delibes - Lakme\Delibes - Lakme - Mady Mesplé - Lombard - CD 1\CD\20 Allons, avant que midi sonne.wav
Peak level 84.6 %
Extraction speed 3.1 X
Track quality 100.0 %
Test CRC 7A2F4763
Copy CRC 7A2F4763
Track not present in AccurateRip database
Copy OK
Track 21
Filename E:\MUSIC\My Music\Delibes - Lakme\Delibes - Lakme - Mady Mesplé - Lombard - CD 1\CD\21 Ces égoistes peu formalistes.wav
Peak level 83.9 %
Extraction speed 3.3 X
Track quality 100.0 %
Test CRC 8894A45B
Copy CRC 8894A45B
Track not present in AccurateRip database
Copy OK
Track 22
Filename E:\MUSIC\My Music\Delibes - Lakme\Delibes - Lakme - Mady Mesplé - Lombard - CD 1\CD\22 Enfin ! Nous aurons du silence !.wav
Peak level 41.2 %
Extraction speed 2.6 X
Track quality 100.0 %
Test CRC 0DB5488B
Copy CRC 0DB5488B
Track not present in AccurateRip database
Copy OK
Track 23
Filename E:\MUSIC\My Music\Delibes - Lakme\Delibes - Lakme - Mady Mesplé - Lombard - CD 1\CD\23 Tänze - Introduction.wav
Peak level 79.7 %
Extraction speed 1.7 X
Track quality 100.0 %
Test CRC 222FAD25
Copy CRC 222FAD25
Track not present in AccurateRip database
Copy OK
Track 24
Filename E:\MUSIC\My Music\Delibes - Lakme\Delibes - Lakme - Mady Mesplé - Lombard - CD 1\CD\24 Terâna.wav
Peak level 66.3 %
Extraction speed 3.2 X
Track quality 100.0 %
Test CRC C98D8182
Copy CRC C98D8182
Track not present in AccurateRip database
Copy OK
Track 25
Filename E:\MUSIC\My Music\Delibes - Lakme\Delibes - Lakme - Mady Mesplé - Lombard - CD 1\CD\25 Rektah.wav
Peak level 81.7 %
Extraction speed 2.8 X
Track quality 100.0 %
Test CRC BE433AF4
Copy CRC BE433AF4
Track not present in AccurateRip database
Copy OK
Track 26
Filename E:\MUSIC\My Music\Delibes - Lakme\Delibes - Lakme - Mady Mesplé - Lombard - CD 1\CD\26 Persian.wav
Peak level 22.2 %
Extraction speed 3.2 X
Track quality 100.0 %
Test CRC 40AA363E
Copy CRC 40AA363E
Track not present in AccurateRip database
Copy OK
Track 27
Filename E:\MUSIC\My Music\Delibes - Lakme\Delibes - Lakme - Mady Mesplé - Lombard - CD 1\CD\27 Coda.wav
Peak level 77.4 %
Extraction speed 2.7 X
Track quality 100.0 %
Test CRC 6A26936C
Copy CRC 6A26936C
Track not present in AccurateRip database
Copy OK
Track 28
Filename E:\MUSIC\My Music\Delibes - Lakme\Delibes - Lakme - Mady Mesplé - Lombard - CD 1\CD\28 Sortie.wav
Peak level 23.8 %
Extraction speed 2.2 X
Track quality 100.0 %
Test CRC 21D25A7E
Copy CRC 21D25A7E
Track not present in AccurateRip database
Copy OK
Track 29
Filename E:\MUSIC\My Music\Delibes - Lakme\Delibes - Lakme - Mady Mesplé - Lombard - CD 1\CD\29 Voyez donc ce vieillard et cette jeune fille !.wav
Peak level 60.2 %
Extraction speed 3.8 X
Track quality 100.0 %
Test CRC FCA966BF
Copy CRC FCA966BF
Track not present in AccurateRip database
Copy OK
Track 30
Filename E:\MUSIC\My Music\Delibes - Lakme\Delibes - Lakme - Mady Mesplé - Lombard - CD 1\CD\30 Ah ! co vieillard encore !... C'est un pauvre qui mendie.wav
Peak level 70.9 %
Extraction speed 3.4 X
Track quality 100.0 %
Test CRC D2DB1D51
Copy CRC D2DB1D51
Track not present in AccurateRip database
Copy OK
Track 31
Filename E:\MUSIC\My Music\Delibes - Lakme\Delibes - Lakme - Mady Mesplé - Lombard - CD 1\CD\31 Lakmé, ton doux regard se voile.wav
Peak level 71.1 %
Extraction speed 2.9 X
Track quality 99.9 %
Test CRC C28541A1
Copy CRC C28541A1
Track not present in AccurateRip database
Copy OK
None of the tracks are present in the AccurateRip database
No errors occurred
End of status report
==== Log checksum F890418490CED73A62C050F4F1771C0701BCC031476AEB18EC1834BC46A6C8E9 ====
------------------------------------------------------------
Exact Audio Copy V1.0 beta 3 from 29. August 2011
EAC extraction logfile from 12. July 2015, 10:58
Léo Delibes / Lakmé CD I
Used drive : SONY DVD RW DRU-840A Adapter: 0 ID: 1
Read mode : Secure
Utilize accurate stream : Yes
Defeat audio cache : Yes
Make use of C2 pointers : No
Read offset correction : 6
Overread into Lead-In and Lead-Out : No
Fill up missing offset samples with silence : Yes
Delete leading and trailing silent blocks : No
Null samples used in CRC calculations : Yes
Used interface : Native Win32 interface for Win NT & 2000
Gap handling : Not detected, thus appended to previous track
Used output format : User Defined Encoder
Selected bitrate : 320 kBit/s
Quality : High
Add ID3 tag : No
Command line compressor : C:\Archivos de programa\Exact Audio Copy\FLAC\FLAC.EXE
Additional command line options : -6 -V -T "ARTIST=%artist%" -T "TITLE=%title%" -T "ALBUM=%albumtitle%" -T "DATE=%year%" -T "TRACKNUMBER=%tracknr%" -T "GENRE=%genre%" -T "COMMENT=%comment%" -T "BAND=%albuminterpret%" -T "ALBUMARTIST=%albuminterpret%" -T "COMPOSER=%composer%" %haslyrics%--tag-from-file=LYRICS="%lyricsfile%"%haslyrics% -T "DISCNUMBER=%cdnumber%" -T "TOTALDISCS=%totalcds%" -T "TOTALTRACKS=%numtracks%" %hascover%--picture="%coverfile%"%hascover% %source% -o %dest%
TOC of the extracted CD
Track | Start | Length | Start sector | End sector
---------------------------------------------------------
1 | 0:00.00 | 3:23.71 | 0 | 15295
2 | 3:23.71 | 3:03.01 | 15296 | 29021
3 | 6:26.72 | 4:03.11 | 29022 | 47257
4 | 10:30.08 | 3:14.56 | 47258 | 61863
5 | 13:44.64 | 1:06.46 | 61864 | 66859
6 | 14:51.35 | 4:44.61 | 66860 | 88220
7 | 19:36.21 | 2:30.41 | 88221 | 99511
8 | 22:06.62 | 5:01.15 | 99512 | 122101
9 | 27:08.02 | 1:24.05 | 122102 | 128406
10 | 28:32.07 | 1:36.38 | 128407 | 135644
11 | 30:08.45 | 3:36.29 | 135645 | 151873
12 | 33:44.74 | 3:14.65 | 151874 | 166488
13 | 36:59.64 | 1:07.36 | 166489 | 171549
14 | 38:07.25 | 3:22.68 | 171550 | 186767
15 | 41:30.18 | 0:54.23 | 186768 | 190840
16 | 42:24.41 | 4:06.08 | 190841 | 209298
17 | 46:30.49 | 3:44.27 | 209299 | 226125
18 | 50:15.01 | 1:44.19 | 226126 | 233944
19 | 51:59.20 | 1:14.70 | 233945 | 239564
20 | 53:14.15 | 2:01.28 | 239565 | 248667
21 | 55:15.43 | 2:29.19 | 248668 | 259861
22 | 57:44.62 | 1:00.44 | 259862 | 264405
23 | 58:45.31 | 0:26.26 | 264406 | 266381
24 | 59:11.57 | 1:47.22 | 266382 | 274428
25 | 60:59.04 | 1:05.39 | 274429 | 279342
26 | 62:04.43 | 1:45.40 | 279343 | 287257
27 | 63:50.08 | 1:01.73 | 287258 | 291905
28 | 64:52.06 | 0:42.14 | 291906 | 295069
29 | 65:34.20 | 3:40.29 | 295070 | 311598
30 | 69:14.49 | 1:50.36 | 311599 | 319884
31 | 71:05.10 | 4:11.00 | 319885 | 338709
Track 1
Filename E:\MUSIC\My Music\Delibes - Lakme\Delibes - Lakme - Mady Mesplé - Lombard - CD 1\CD\01 Prélude.wav
Peak level 98.3 %
Extraction speed 1.9 X
Track quality 100.0 %
Test CRC 8CCE4F9D
Copy CRC 8CCE4F9D
Track not present in AccurateRip database
Copy OK
Track 2
Filename E:\MUSIC\My Music\Delibes - Lakme\Delibes - Lakme - Mady Mesplé - Lombard - CD 1\CD\02 1. Akt - À l'heure accoutumée.wav
Peak level 84.8 %
Extraction speed 2.0 X
Track quality 100.0 %
Test CRC 19126C0B
Copy CRC 19126C0B
Track not present in AccurateRip database
Copy OK
Track 3
Filename E:\MUSIC\My Music\Delibes - Lakme\Delibes - Lakme - Mady Mesplé - Lombard - CD 1\CD\03 Blanche Dourga, pâle Siva !.wav
Peak level 81.6 %
Extraction speed 2.2 X
Track quality 100.0 %
Test CRC 6082ADD1
Copy CRC 6082ADD1
Track not present in AccurateRip database
Copy OK
Track 4
Filename E:\MUSIC\My Music\Delibes - Lakme\Delibes - Lakme - Mady Mesplé - Lombard - CD 1\CD\04 Lakmé, c'est toi qui nous protèges !.wav
Peak level 40.6 %
Extraction speed 2.3 X
Track quality 100.0 %
Test CRC E8566AD9
Copy CRC E8566AD9
Track not present in AccurateRip database
Copy OK
Track 5
Filename E:\MUSIC\My Music\Delibes - Lakme\Delibes - Lakme - Mady Mesplé - Lombard - CD 1\CD\05 Viens, Mallika.wav
Peak level 26.9 %
Extraction speed 1.8 X
Track quality 100.0 %
Test CRC 306BEFE3
Copy CRC 306BEFE3
Track not present in AccurateRip database
Copy OK
Track 6
Filename E:\MUSIC\My Music\Delibes - Lakme\Delibes - Lakme - Mady Mesplé - Lombard - CD 1\CD\06 Dôme épais le jasmin à la rose s'assemble.wav
Peak level 63.7 %
Extraction speed 2.1 X
Track quality 100.0 %
Test CRC D25D804A
Copy CRC D25D804A
Track not present in AccurateRip database
Copy OK
Track 7
Filename E:\MUSIC\My Music\Delibes - Lakme\Delibes - Lakme - Mady Mesplé - Lombard - CD 1\CD\07 Miss Rose, Miss Ellen, respectez les Clôtures !.wav
Peak level 70.4 %
Extraction speed 2.5 X
Track quality 100.0 %
Test CRC 5D5277E3
Copy CRC 5D5277E3
Track not present in AccurateRip database
Copy OK
Track 8
Filename E:\MUSIC\My Music\Delibes - Lakme\Delibes - Lakme - Mady Mesplé - Lombard - CD 1\CD\08 Quand une femme est si jolie.wav
Peak level 83.5 %
Extraction speed 2.9 X
Track quality 100.0 %
Test CRC D999BA05
Copy CRC D999BA05
Track not present in AccurateRip database
Copy OK
Track 9
Filename E:\MUSIC\My Music\Delibes - Lakme\Delibes - Lakme - Mady Mesplé - Lombard - CD 1\CD\09 Nous commettons un sacrilège.wav
Peak level 72.8 %
Extraction speed 2.3 X
Track quality 100.0 %
Test CRC 8F935B89
Copy CRC 8F935B89
Track not present in AccurateRip database
Copy OK
Track 10
Filename E:\MUSIC\My Music\Delibes - Lakme\Delibes - Lakme - Mady Mesplé - Lombard - CD 1\CD\10 Prendre le dessin d'un bijou.wav
Peak level 31.9 %
Extraction speed 2.4 X
Track quality 100.0 %
Test CRC E3361CE4
Copy CRC E3361CE4
Track not present in AccurateRip database
Copy OK
Track 11
Filename E:\MUSIC\My Music\Delibes - Lakme\Delibes - Lakme - Mady Mesplé - Lombard - CD 1\CD\11 Fantaisie aux divins mensonges.wav
Peak level 90.6 %
Extraction speed 3.0 X
Track quality 100.0 %
Test CRC 15577F91
Copy CRC 15577F91
Track not present in AccurateRip database
Copy OK
Track 12
Filename E:\MUSIC\My Music\Delibes - Lakme\Delibes - Lakme - Mady Mesplé - Lombard - CD 1\CD\12 Non ! je ne veux pas tocher.wav
Peak level 66.3 %
Extraction speed 2.2 X
Track quality 99.9 %
Test CRC 7B5EA089
Copy CRC 7B5EA089
Track not present in AccurateRip database
Copy OK
Track 13
Filename E:\MUSIC\My Music\Delibes - Lakme\Delibes - Lakme - Mady Mesplé - Lombard - CD 1\CD\13 Les fleurs me paraissent plus belles.wav
Peak level 62.6 %
Extraction speed 2.3 X
Track quality 100.0 %
Test CRC 321ECE68
Copy CRC 321ECE68
Track not present in AccurateRip database
Copy OK
Track 14
Filename E:\MUSIC\My Music\Delibes - Lakme\Delibes - Lakme - Mady Mesplé - Lombard - CD 1\CD\14 Pourquoi dans les grands bois.wav
Peak level 46.7 %
Extraction speed 3.2 X
Track quality 100.0 %
Test CRC AE2E7DF6
Copy CRC AE2E7DF6
Track not present in AccurateRip database
Copy OK
Track 15
Filename E:\MUSIC\My Music\Delibes - Lakme\Delibes - Lakme - Mady Mesplé - Lombard - CD 1\CD\15 Ah ! Mallika ! Mallika !.wav
Peak level 82.4 %
Extraction speed 2.2 X
Track quality 100.0 %
Test CRC E3472F3D
Copy CRC E3472F3D
Track not present in AccurateRip database
Copy OK
Track 16
Filename E:\MUSIC\My Music\Delibes - Lakme\Delibes - Lakme - Mady Mesplé - Lombard - CD 1\CD\16 D'où viens-tu Que veux-tu.wav
Peak level 79.1 %
Extraction speed 3.4 X
Track quality 100.0 %
Test CRC 1B42B88C
Copy CRC 1B42B88C
Track not present in AccurateRip database
Copy OK
Track 17
Filename E:\MUSIC\My Music\Delibes - Lakme\Delibes - Lakme - Mady Mesplé - Lombard - CD 1\CD\17 C'est le dieu de la jeunesse.wav
Peak level 83.4 %
Extraction speed 3.4 X
Track quality 100.0 %
Test CRC C0C657FE
Copy CRC C0C657FE
Track not present in AccurateRip database
Copy OK
Track 18
Filename E:\MUSIC\My Music\Delibes - Lakme\Delibes - Lakme - Mady Mesplé - Lombard - CD 1\CD\18 Viens ! là ! là !.wav
Peak level 83.5 %
Extraction speed 1.7 X
Track quality 99.8 %
Test CRC E784C1B9
Copy CRC E784C1B9
Track not present in AccurateRip database
Copy OK
Track 19
Filename E:\MUSIC\My Music\Delibes - Lakme\Delibes - Lakme - Mady Mesplé - Lombard - CD 1\CD\19 2. Akt - Entracte.wav
Peak level 94.5 %
Extraction speed 2.7 X
Track quality 100.0 %
Test CRC 07199503
Copy CRC 07199503
Track not present in AccurateRip database
Copy OK
Track 20
Filename E:\MUSIC\My Music\Delibes - Lakme\Delibes - Lakme - Mady Mesplé - Lombard - CD 1\CD\20 Allons, avant que midi sonne.wav
Peak level 84.6 %
Extraction speed 3.1 X
Track quality 100.0 %
Test CRC 7A2F4763
Copy CRC 7A2F4763
Track not present in AccurateRip database
Copy OK
Track 21
Filename E:\MUSIC\My Music\Delibes - Lakme\Delibes - Lakme - Mady Mesplé - Lombard - CD 1\CD\21 Ces égoistes peu formalistes.wav
Peak level 83.9 %
Extraction speed 3.3 X
Track quality 100.0 %
Test CRC 8894A45B
Copy CRC 8894A45B
Track not present in AccurateRip database
Copy OK
Track 22
Filename E:\MUSIC\My Music\Delibes - Lakme\Delibes - Lakme - Mady Mesplé - Lombard - CD 1\CD\22 Enfin ! Nous aurons du silence !.wav
Peak level 41.2 %
Extraction speed 2.6 X
Track quality 100.0 %
Test CRC 0DB5488B
Copy CRC 0DB5488B
Track not present in AccurateRip database
Copy OK
Track 23
Filename E:\MUSIC\My Music\Delibes - Lakme\Delibes - Lakme - Mady Mesplé - Lombard - CD 1\CD\23 Tänze - Introduction.wav
Peak level 79.7 %
Extraction speed 1.7 X
Track quality 100.0 %
Test CRC 222FAD25
Copy CRC 222FAD25
Track not present in AccurateRip database
Copy OK
Track 24
Filename E:\MUSIC\My Music\Delibes - Lakme\Delibes - Lakme - Mady Mesplé - Lombard - CD 1\CD\24 Terâna.wav
Peak level 66.3 %
Extraction speed 3.2 X
Track quality 100.0 %
Test CRC C98D8182
Copy CRC C98D8182
Track not present in AccurateRip database
Copy OK
Track 25
Filename E:\MUSIC\My Music\Delibes - Lakme\Delibes - Lakme - Mady Mesplé - Lombard - CD 1\CD\25 Rektah.wav
Peak level 81.7 %
Extraction speed 2.8 X
Track quality 100.0 %
Test CRC BE433AF4
Copy CRC BE433AF4
Track not present in AccurateRip database
Copy OK
Track 26
Filename E:\MUSIC\My Music\Delibes - Lakme\Delibes - Lakme - Mady Mesplé - Lombard - CD 1\CD\26 Persian.wav
Peak level 22.2 %
Extraction speed 3.2 X
Track quality 100.0 %
Test CRC 40AA363E
Copy CRC 40AA363E
Track not present in AccurateRip database
Copy OK
Track 27
Filename E:\MUSIC\My Music\Delibes - Lakme\Delibes - Lakme - Mady Mesplé - Lombard - CD 1\CD\27 Coda.wav
Peak level 77.4 %
Extraction speed 2.7 X
Track quality 100.0 %
Test CRC 6A26936C
Copy CRC 6A26936C
Track not present in AccurateRip database
Copy OK
Track 28
Filename E:\MUSIC\My Music\Delibes - Lakme\Delibes - Lakme - Mady Mesplé - Lombard - CD 1\CD\28 Sortie.wav
Peak level 23.8 %
Extraction speed 2.2 X
Track quality 100.0 %
Test CRC 21D25A7E
Copy CRC 21D25A7E
Track not present in AccurateRip database
Copy OK
Track 29
Filename E:\MUSIC\My Music\Delibes - Lakme\Delibes - Lakme - Mady Mesplé - Lombard - CD 1\CD\29 Voyez donc ce vieillard et cette jeune fille !.wav
Peak level 60.2 %
Extraction speed 3.8 X
Track quality 100.0 %
Test CRC FCA966BF
Copy CRC FCA966BF
Track not present in AccurateRip database
Copy OK
Track 30
Filename E:\MUSIC\My Music\Delibes - Lakme\Delibes - Lakme - Mady Mesplé - Lombard - CD 1\CD\30 Ah ! co vieillard encore !... C'est un pauvre qui mendie.wav
Peak level 70.9 %
Extraction speed 3.4 X
Track quality 100.0 %
Test CRC D2DB1D51
Copy CRC D2DB1D51
Track not present in AccurateRip database
Copy OK
Track 31
Filename E:\MUSIC\My Music\Delibes - Lakme\Delibes - Lakme - Mady Mesplé - Lombard - CD 1\CD\31 Lakmé, ton doux regard se voile.wav
Peak level 71.1 %
Extraction speed 2.9 X
Track quality 99.9 %
Test CRC C28541A1
Copy CRC C28541A1
Track not present in AccurateRip database
Copy OK
None of the tracks are present in the AccurateRip database
No errors occurred
End of status report
==== Log checksum F890418490CED73A62C050F4F1771C0701BCC031476AEB18EC1834BC46A6C8E9 ====

Лог создания рипа CD 2

Exact Audio Copy V1.0 beta 3 from 29. August 2011
EAC extraction logfile from 12. July 2015, 11:29
Alain Lombard / Delibes Lakmé CD 2
Used drive : SONY DVD RW DRU-840A Adapter: 0 ID: 1
Read mode : Secure
Utilize accurate stream : Yes
Defeat audio cache : Yes
Make use of C2 pointers : No
Read offset correction : 6
Overread into Lead-In and Lead-Out : No
Fill up missing offset samples with silence : Yes
Delete leading and trailing silent blocks : No
Null samples used in CRC calculations : Yes
Used interface : Native Win32 interface for Win NT & 2000
Gap handling : Not detected, thus appended to previous track
Used output format : User Defined Encoder
Selected bitrate : 320 kBit/s
Quality : High
Add ID3 tag : No
Command line compressor : C:\Archivos de programa\Exact Audio Copy\FLAC\FLAC.EXE
Additional command line options : -6 -V -T "ARTIST=%artist%" -T "TITLE=%title%" -T "ALBUM=%albumtitle%" -T "DATE=%year%" -T "TRACKNUMBER=%tracknr%" -T "GENRE=%genre%" -T "COMMENT=%comment%" -T "BAND=%albuminterpret%" -T "ALBUMARTIST=%albuminterpret%" -T "COMPOSER=%composer%" %haslyrics%--tag-from-file=LYRICS="%lyricsfile%"%haslyrics% -T "DISCNUMBER=%cdnumber%" -T "TOTALDISCS=%totalcds%" -T "TOTALTRACKS=%numtracks%" %hascover%--picture="%coverfile%"%hascover% %source% -o %dest%
TOC of the extracted CD
Track | Start | Length | Start sector | End sector
---------------------------------------------------------
1 | 0:00.00 | 1:54.54 | 0 | 8603
2 | 1:54.54 | 1:59.67 | 8604 | 17595
3 | 3:54.46 | 2:15.39 | 17596 | 27759
4 | 6:10.10 | 4:11.52 | 27760 | 46636
5 | 10:21.62 | 3:40.30 | 46637 | 63166
6 | 14:02.17 | 3:55.53 | 63167 | 80844
7 | 17:57.70 | 1:56.27 | 80845 | 89571
8 | 19:54.22 | 2:20.57 | 89572 | 100128
9 | 22:15.04 | 1:36.73 | 100129 | 107401
10 | 23:52.02 | 3:16.06 | 107402 | 122107
11 | 27:08.08 | 1:50.06 | 122108 | 130363
12 | 28:58.14 | 2:16.33 | 130364 | 140596
13 | 31:14.47 | 3:34.20 | 140597 | 156666
14 | 34:48.67 | 3:00.69 | 156667 | 170235
15 | 37:49.61 | 3:58.49 | 170236 | 188134
16 | 41:48.35 | 3:52.16 | 188135 | 205550
17 | 45:40.51 | 2:27.59 | 205551 | 216634
18 | 48:08.35 | 2:04.60 | 216635 | 225994
19 | 50:13.20 | 1:27.57 | 225995 | 232576
20 | 51:41.02 | 3:34.70 | 232577 | 248696
21 | 55:15.72 | 4:16.45 | 248697 | 267941
22 | 59:32.42 | 1:47.44 | 267942 | 276010
23 | 61:20.11 | 1:34.64 | 276011 | 283124
24 | 62:55.00 | 1:32.58 | 283125 | 290082
25 | 64:27.58 | 2:02.56 | 290083 | 299288
26 | 66:30.39 | 3:46.68 | 299289 | 316306
27 | 70:17.32 | 4:07.05 | 316307 | 334836
Track 1
Filename E:\MUSIC\My Music\Delibes - Lakme\Delibes - Lakme - Mady Mesplé - Lombard - CD 2\CD\01 Ah ! c'est de ta douleur.wav
Peak level 61.4 %
Extraction speed 4.1 X
Track quality 100.0 %
Test CRC DF861CB4
Copy CRC DF861CB4
Track not present in AccurateRip database
Copy OK
Track 2
Filename E:\MUSIC\My Music\Delibes - Lakme\Delibes - Lakme - Mady Mesplé - Lombard - CD 2\CD\02 Ah ! Par les dieux inspirée.wav
Peak level 49.4 %
Extraction speed 4.4 X
Track quality 100.0 %
Test CRC D3610695
Copy CRC D3610695
Track not present in AccurateRip database
Copy OK
Track 3
Filename E:\MUSIC\My Music\Delibes - Lakme\Delibes - Lakme - Mady Mesplé - Lombard - CD 2\CD\03 Où va la jeune hindoue.wav
Peak level 23.7 %
Extraction speed 4.7 X
Track quality 100.0 %
Test CRC 27B30030
Copy CRC 27B30030
Track not present in AccurateRip database
Copy OK
Track 4
Filename E:\MUSIC\My Music\Delibes - Lakme\Delibes - Lakme - Mady Mesplé - Lombard - CD 2\CD\04 Là-bas dans la forêt plus sombre.wav
Peak level 95.9 %
Extraction speed 5.6 X
Track quality 100.0 %
Test CRC 28D4A6A9
Copy CRC 28D4A6A9
Track not present in AccurateRip database
Copy OK
Track 5
Filename E:\MUSIC\My Music\Delibes - Lakme\Delibes - Lakme - Mady Mesplé - Lombard - CD 2\CD\05 La rage me dévore.wav
Peak level 93.8 %
Extraction speed 4.6 X
Track quality 99.9 %
Test CRC 0CEB9AEC
Copy CRC 0CEB9AEC
Track not present in AccurateRip database
Copy OK
Track 6
Filename E:\MUSIC\My Music\Delibes - Lakme\Delibes - Lakme - Mady Mesplé - Lombard - CD 2\CD\06 Au milieu des chants d'allégresse.wav
Peak level 81.0 %
Extraction speed 4.9 X
Track quality 99.9 %
Test CRC 99265537
Copy CRC 99265537
Track not present in AccurateRip database
Copy OK
Track 7
Filename E:\MUSIC\My Music\Delibes - Lakme\Delibes - Lakme - Mady Mesplé - Lombard - CD 2\CD\07 Le maître ne pense qu'à sa vengeance.wav
Peak level 26.3 %
Extraction speed 5.6 X
Track quality 100.0 %
Test CRC 05F8D5FF
Copy CRC 05F8D5FF
Track not present in AccurateRip database
Copy OK
Track 8
Filename E:\MUSIC\My Music\Delibes - Lakme\Delibes - Lakme - Mady Mesplé - Lombard - CD 2\CD\08 Lakmé ! Lakmé ! C'est toi !.wav
Peak level 67.7 %
Extraction speed 4.3 X
Track quality 99.9 %
Test CRC 6BF5037B
Copy CRC 6BF5037B
Track not present in AccurateRip database
Copy OK
Track 9
Filename E:\MUSIC\My Music\Delibes - Lakme\Delibes - Lakme - Mady Mesplé - Lombard - CD 2\CD\09 Ah ! c'est l'amour endormi.wav
Peak level 65.6 %
Extraction speed 5.5 X
Track quality 100.0 %
Test CRC 651E99AC
Copy CRC 651E99AC
Track not present in AccurateRip database
Copy OK
Track 10
Filename E:\MUSIC\My Music\Delibes - Lakme\Delibes - Lakme - Mady Mesplé - Lombard - CD 2\CD\10 Dans la forêt près de nous.wav
Peak level 23.7 %
Extraction speed 6.7 X
Track quality 100.0 %
Test CRC C1023084
Copy CRC C1023084
Track not present in AccurateRip database
Copy OK
Track 11
Filename E:\MUSIC\My Music\Delibes - Lakme\Delibes - Lakme - Mady Mesplé - Lombard - CD 2\CD\11 Ô douce enchanteresse, parle parle toujours !.wav
Peak level 91.5 %
Extraction speed 6.1 X
Track quality 100.0 %
Test CRC B670CA9B
Copy CRC B670CA9B
Track not present in AccurateRip database
Copy OK
Track 12
Filename E:\MUSIC\My Music\Delibes - Lakme\Delibes - Lakme - Mady Mesplé - Lombard - CD 2\CD\12 Ô dourga, toi qui renais... Dourga, entends nos voix !.wav
Peak level 91.4 %
Extraction speed 4.6 X
Track quality 99.9 %
Test CRC 1EA06B4C
Copy CRC 1EA06B4C
Track not present in AccurateRip database
Copy OK
Track 13
Filename E:\MUSIC\My Music\Delibes - Lakme\Delibes - Lakme - Mady Mesplé - Lombard - CD 2\CD\13 Voyez cette ville en fête !.wav
Peak level 94.4 %
Extraction speed 7.3 X
Track quality 100.0 %
Test CRC 7ABF2457
Copy CRC 7ABF2457
Track not present in AccurateRip database
Copy OK
Track 14
Filename E:\MUSIC\My Music\Delibes - Lakme\Delibes - Lakme - Mady Mesplé - Lombard - CD 2\CD\14 C'est un rêve, une folie.wav
Peak level 90.9 %
Extraction speed 5.2 X
Track quality 99.9 %
Test CRC EE9CD61F
Copy CRC EE9CD61F
Track not present in AccurateRip database
Copy OK
Track 15
Filename E:\MUSIC\My Music\Delibes - Lakme\Delibes - Lakme - Mady Mesplé - Lombard - CD 2\CD\15 3. Akt - Entracte.wav
Peak level 88.9 %
Extraction speed 7.9 X
Track quality 100.0 %
Test CRC 04559839
Copy CRC 04559839
Track not present in AccurateRip database
Copy OK
Track 16
Filename E:\MUSIC\My Music\Delibes - Lakme\Delibes - Lakme - Mady Mesplé - Lombard - CD 2\CD\16 Sous le ciel tout ètoilè.wav
Peak level 41.7 %
Extraction speed 8.1 X
Track quality 100.0 %
Test CRC 4827CE02
Copy CRC 4827CE02
Track not present in AccurateRip database
Copy OK
Track 17
Filename E:\MUSIC\My Music\Delibes - Lakme\Delibes - Lakme - Mady Mesplé - Lombard - CD 2\CD\17 Quel vague souvenir alourdit ma pensée.wav
Peak level 52.5 %
Extraction speed 7.6 X
Track quality 100.0 %
Test CRC 0C5EAB9D
Copy CRC 0C5EAB9D
Track not present in AccurateRip database
Copy OK
Track 18
Filename E:\MUSIC\My Music\Delibes - Lakme\Delibes - Lakme - Mady Mesplé - Lombard - CD 2\CD\18 Lakmé ! Lakmé ! Lakmé ! Ah ! viens, dans la forêt profonde.wav
Peak level 62.3 %
Extraction speed 5.1 X
Track quality 99.9 %
Test CRC B9149E8E
Copy CRC B9149E8E
Track not present in AccurateRip database
Copy OK
Track 19
Filename E:\MUSIC\My Music\Delibes - Lakme\Delibes - Lakme - Mady Mesplé - Lombard - CD 2\CD\19 Là, je pourrai t'entendre.wav
Peak level 45.8 %
Extraction speed 6.7 X
Track quality 100.0 %
Test CRC E788296C
Copy CRC E788296C
Track not present in AccurateRip database
Copy OK
Track 20
Filename E:\MUSIC\My Music\Delibes - Lakme\Delibes - Lakme - Mady Mesplé - Lombard - CD 2\CD\20 Descendons la pente doucement.wav
Peak level 31.7 %
Extraction speed 8.3 X
Track quality 100.0 %
Test CRC 07649E0E
Copy CRC 07649E0E
Track not present in AccurateRip database
Copy OK
Track 21
Filename E:\MUSIC\My Music\Delibes - Lakme\Delibes - Lakme - Mady Mesplé - Lombard - CD 2\CD\21 Vivant !... Ah ! Frédéric !.wav
Peak level 80.7 %
Extraction speed 7.1 X
Track quality 99.9 %
Test CRC 1D120219
Copy CRC 1D120219
Track not present in AccurateRip database
Copy OK
Track 22
Filename E:\MUSIC\My Music\Delibes - Lakme\Delibes - Lakme - Mady Mesplé - Lombard - CD 2\CD\22 Ils allaient deux à deux.wav
Peak level 23.1 %
Extraction speed 7.4 X
Track quality 100.0 %
Test CRC FC84E40E
Copy CRC FC84E40E
Track not present in AccurateRip database
Copy OK
Track 23
Filename E:\MUSIC\My Music\Delibes - Lakme\Delibes - Lakme - Mady Mesplé - Lombard - CD 2\CD\23 Ce n'est plus toi !.wav
Peak level 88.6 %
Extraction speed 7.4 X
Track quality 100.0 %
Test CRC CD474889
Copy CRC CD474889
Track not present in AccurateRip database
Copy OK
Track 24
Filename E:\MUSIC\My Music\Delibes - Lakme\Delibes - Lakme - Mady Mesplé - Lombard - CD 2\CD\24 Ciel !... Alerte !... Nos soldats !.wav
Peak level 78.0 %
Extraction speed 7.5 X
Track quality 100.0 %
Test CRC 0FAE4EA7
Copy CRC 0FAE4EA7
Track not present in AccurateRip database
Copy OK
Track 25
Filename E:\MUSIC\My Music\Delibes - Lakme\Delibes - Lakme - Mady Mesplé - Lombard - CD 2\CD\25 Tu m'as donné le plus doux rêve.wav
Peak level 34.9 %
Extraction speed 8.1 X
Track quality 100.0 %
Test CRC F32B4439
Copy CRC F32B4439
Track not present in AccurateRip database
Copy OK
Track 26
Filename E:\MUSIC\My Music\Delibes - Lakme\Delibes - Lakme - Mady Mesplé - Lombard - CD 2\CD\26 Ce que je lis sur ton visage.wav
Peak level 78.6 %
Extraction speed 9.3 X
Track quality 100.0 %
Test CRC 3B2EB4B6
Copy CRC 3B2EB4B6
Track not present in AccurateRip database
Copy OK
Track 27
Filename E:\MUSIC\My Music\Delibes - Lakme\Delibes - Lakme - Mady Mesplé - Lombard - CD 2\CD\27 C'est lui ! C'est lui !.wav
Peak level 83.7 %
Extraction speed 9.5 X
Track quality 100.0 %
Test CRC 48E7134E
Copy CRC 48E7134E
Track not present in AccurateRip database
Copy OK
None of the tracks are present in the AccurateRip database
No errors occurred
End of status report
==== Log checksum 66F80195F6A93CD515851983AA5494B955EEFF2FFDD3C423F76787328A1D47C7 ====
------------------------------------------------------------
Exact Audio Copy V1.0 beta 3 from 29. August 2011
EAC extraction logfile from 12. July 2015, 11:29
Alain Lombard / Delibes Lakmé CD 2
Used drive : SONY DVD RW DRU-840A Adapter: 0 ID: 1
Read mode : Secure
Utilize accurate stream : Yes
Defeat audio cache : Yes
Make use of C2 pointers : No
Read offset correction : 6
Overread into Lead-In and Lead-Out : No
Fill up missing offset samples with silence : Yes
Delete leading and trailing silent blocks : No
Null samples used in CRC calculations : Yes
Used interface : Native Win32 interface for Win NT & 2000
Gap handling : Not detected, thus appended to previous track
Used output format : User Defined Encoder
Selected bitrate : 320 kBit/s
Quality : High
Add ID3 tag : No
Command line compressor : C:\Archivos de programa\Exact Audio Copy\FLAC\FLAC.EXE
Additional command line options : -6 -V -T "ARTIST=%artist%" -T "TITLE=%title%" -T "ALBUM=%albumtitle%" -T "DATE=%year%" -T "TRACKNUMBER=%tracknr%" -T "GENRE=%genre%" -T "COMMENT=%comment%" -T "BAND=%albuminterpret%" -T "ALBUMARTIST=%albuminterpret%" -T "COMPOSER=%composer%" %haslyrics%--tag-from-file=LYRICS="%lyricsfile%"%haslyrics% -T "DISCNUMBER=%cdnumber%" -T "TOTALDISCS=%totalcds%" -T "TOTALTRACKS=%numtracks%" %hascover%--picture="%coverfile%"%hascover% %source% -o %dest%
TOC of the extracted CD
Track | Start | Length | Start sector | End sector
---------------------------------------------------------
1 | 0:00.00 | 1:54.54 | 0 | 8603
2 | 1:54.54 | 1:59.67 | 8604 | 17595
3 | 3:54.46 | 2:15.39 | 17596 | 27759
4 | 6:10.10 | 4:11.52 | 27760 | 46636
5 | 10:21.62 | 3:40.30 | 46637 | 63166
6 | 14:02.17 | 3:55.53 | 63167 | 80844
7 | 17:57.70 | 1:56.27 | 80845 | 89571
8 | 19:54.22 | 2:20.57 | 89572 | 100128
9 | 22:15.04 | 1:36.73 | 100129 | 107401
10 | 23:52.02 | 3:16.06 | 107402 | 122107
11 | 27:08.08 | 1:50.06 | 122108 | 130363
12 | 28:58.14 | 2:16.33 | 130364 | 140596
13 | 31:14.47 | 3:34.20 | 140597 | 156666
14 | 34:48.67 | 3:00.69 | 156667 | 170235
15 | 37:49.61 | 3:58.49 | 170236 | 188134
16 | 41:48.35 | 3:52.16 | 188135 | 205550
17 | 45:40.51 | 2:27.59 | 205551 | 216634
18 | 48:08.35 | 2:04.60 | 216635 | 225994
19 | 50:13.20 | 1:27.57 | 225995 | 232576
20 | 51:41.02 | 3:34.70 | 232577 | 248696
21 | 55:15.72 | 4:16.45 | 248697 | 267941
22 | 59:32.42 | 1:47.44 | 267942 | 276010
23 | 61:20.11 | 1:34.64 | 276011 | 283124
24 | 62:55.00 | 1:32.58 | 283125 | 290082
25 | 64:27.58 | 2:02.56 | 290083 | 299288
26 | 66:30.39 | 3:46.68 | 299289 | 316306
27 | 70:17.32 | 4:07.05 | 316307 | 334836
Track 1
Filename E:\MUSIC\My Music\Delibes - Lakme\Delibes - Lakme - Mady Mesplé - Lombard - CD 2\CD\01 Ah ! c'est de ta douleur.wav
Peak level 61.4 %
Extraction speed 4.1 X
Track quality 100.0 %
Test CRC DF861CB4
Copy CRC DF861CB4
Track not present in AccurateRip database
Copy OK
Track 2
Filename E:\MUSIC\My Music\Delibes - Lakme\Delibes - Lakme - Mady Mesplé - Lombard - CD 2\CD\02 Ah ! Par les dieux inspirée.wav
Peak level 49.4 %
Extraction speed 4.4 X
Track quality 100.0 %
Test CRC D3610695
Copy CRC D3610695
Track not present in AccurateRip database
Copy OK
Track 3
Filename E:\MUSIC\My Music\Delibes - Lakme\Delibes - Lakme - Mady Mesplé - Lombard - CD 2\CD\03 Où va la jeune hindoue.wav
Peak level 23.7 %
Extraction speed 4.7 X
Track quality 100.0 %
Test CRC 27B30030
Copy CRC 27B30030
Track not present in AccurateRip database
Copy OK
Track 4
Filename E:\MUSIC\My Music\Delibes - Lakme\Delibes - Lakme - Mady Mesplé - Lombard - CD 2\CD\04 Là-bas dans la forêt plus sombre.wav
Peak level 95.9 %
Extraction speed 5.6 X
Track quality 100.0 %
Test CRC 28D4A6A9
Copy CRC 28D4A6A9
Track not present in AccurateRip database
Copy OK
Track 5
Filename E:\MUSIC\My Music\Delibes - Lakme\Delibes - Lakme - Mady Mesplé - Lombard - CD 2\CD\05 La rage me dévore.wav
Peak level 93.8 %
Extraction speed 4.6 X
Track quality 99.9 %
Test CRC 0CEB9AEC
Copy CRC 0CEB9AEC
Track not present in AccurateRip database
Copy OK
Track 6
Filename E:\MUSIC\My Music\Delibes - Lakme\Delibes - Lakme - Mady Mesplé - Lombard - CD 2\CD\06 Au milieu des chants d'allégresse.wav
Peak level 81.0 %
Extraction speed 4.9 X
Track quality 99.9 %
Test CRC 99265537
Copy CRC 99265537
Track not present in AccurateRip database
Copy OK
Track 7
Filename E:\MUSIC\My Music\Delibes - Lakme\Delibes - Lakme - Mady Mesplé - Lombard - CD 2\CD\07 Le maître ne pense qu'à sa vengeance.wav
Peak level 26.3 %
Extraction speed 5.6 X
Track quality 100.0 %
Test CRC 05F8D5FF
Copy CRC 05F8D5FF
Track not present in AccurateRip database
Copy OK
Track 8
Filename E:\MUSIC\My Music\Delibes - Lakme\Delibes - Lakme - Mady Mesplé - Lombard - CD 2\CD\08 Lakmé ! Lakmé ! C'est toi !.wav
Peak level 67.7 %
Extraction speed 4.3 X
Track quality 99.9 %
Test CRC 6BF5037B
Copy CRC 6BF5037B
Track not present in AccurateRip database
Copy OK
Track 9
Filename E:\MUSIC\My Music\Delibes - Lakme\Delibes - Lakme - Mady Mesplé - Lombard - CD 2\CD\09 Ah ! c'est l'amour endormi.wav
Peak level 65.6 %
Extraction speed 5.5 X
Track quality 100.0 %
Test CRC 651E99AC
Copy CRC 651E99AC
Track not present in AccurateRip database
Copy OK
Track 10
Filename E:\MUSIC\My Music\Delibes - Lakme\Delibes - Lakme - Mady Mesplé - Lombard - CD 2\CD\10 Dans la forêt près de nous.wav
Peak level 23.7 %
Extraction speed 6.7 X
Track quality 100.0 %
Test CRC C1023084
Copy CRC C1023084
Track not present in AccurateRip database
Copy OK
Track 11
Filename E:\MUSIC\My Music\Delibes - Lakme\Delibes - Lakme - Mady Mesplé - Lombard - CD 2\CD\11 Ô douce enchanteresse, parle parle toujours !.wav
Peak level 91.5 %
Extraction speed 6.1 X
Track quality 100.0 %
Test CRC B670CA9B
Copy CRC B670CA9B
Track not present in AccurateRip database
Copy OK
Track 12
Filename E:\MUSIC\My Music\Delibes - Lakme\Delibes - Lakme - Mady Mesplé - Lombard - CD 2\CD\12 Ô dourga, toi qui renais... Dourga, entends nos voix !.wav
Peak level 91.4 %
Extraction speed 4.6 X
Track quality 99.9 %
Test CRC 1EA06B4C
Copy CRC 1EA06B4C
Track not present in AccurateRip database
Copy OK
Track 13
Filename E:\MUSIC\My Music\Delibes - Lakme\Delibes - Lakme - Mady Mesplé - Lombard - CD 2\CD\13 Voyez cette ville en fête !.wav
Peak level 94.4 %
Extraction speed 7.3 X
Track quality 100.0 %
Test CRC 7ABF2457
Copy CRC 7ABF2457
Track not present in AccurateRip database
Copy OK
Track 14
Filename E:\MUSIC\My Music\Delibes - Lakme\Delibes - Lakme - Mady Mesplé - Lombard - CD 2\CD\14 C'est un rêve, une folie.wav
Peak level 90.9 %
Extraction speed 5.2 X
Track quality 99.9 %
Test CRC EE9CD61F
Copy CRC EE9CD61F
Track not present in AccurateRip database
Copy OK
Track 15
Filename E:\MUSIC\My Music\Delibes - Lakme\Delibes - Lakme - Mady Mesplé - Lombard - CD 2\CD\15 3. Akt - Entracte.wav
Peak level 88.9 %
Extraction speed 7.9 X
Track quality 100.0 %
Test CRC 04559839
Copy CRC 04559839
Track not present in AccurateRip database
Copy OK
Track 16
Filename E:\MUSIC\My Music\Delibes - Lakme\Delibes - Lakme - Mady Mesplé - Lombard - CD 2\CD\16 Sous le ciel tout ètoilè.wav
Peak level 41.7 %
Extraction speed 8.1 X
Track quality 100.0 %
Test CRC 4827CE02
Copy CRC 4827CE02
Track not present in AccurateRip database
Copy OK
Track 17
Filename E:\MUSIC\My Music\Delibes - Lakme\Delibes - Lakme - Mady Mesplé - Lombard - CD 2\CD\17 Quel vague souvenir alourdit ma pensée.wav
Peak level 52.5 %
Extraction speed 7.6 X
Track quality 100.0 %
Test CRC 0C5EAB9D
Copy CRC 0C5EAB9D
Track not present in AccurateRip database
Copy OK
Track 18
Filename E:\MUSIC\My Music\Delibes - Lakme\Delibes - Lakme - Mady Mesplé - Lombard - CD 2\CD\18 Lakmé ! Lakmé ! Lakmé ! Ah ! viens, dans la forêt profonde.wav
Peak level 62.3 %
Extraction speed 5.1 X
Track quality 99.9 %
Test CRC B9149E8E
Copy CRC B9149E8E
Track not present in AccurateRip database
Copy OK
Track 19
Filename E:\MUSIC\My Music\Delibes - Lakme\Delibes - Lakme - Mady Mesplé - Lombard - CD 2\CD\19 Là, je pourrai t'entendre.wav
Peak level 45.8 %
Extraction speed 6.7 X
Track quality 100.0 %
Test CRC E788296C
Copy CRC E788296C
Track not present in AccurateRip database
Copy OK
Track 20
Filename E:\MUSIC\My Music\Delibes - Lakme\Delibes - Lakme - Mady Mesplé - Lombard - CD 2\CD\20 Descendons la pente doucement.wav
Peak level 31.7 %
Extraction speed 8.3 X
Track quality 100.0 %
Test CRC 07649E0E
Copy CRC 07649E0E
Track not present in AccurateRip database
Copy OK
Track 21
Filename E:\MUSIC\My Music\Delibes - Lakme\Delibes - Lakme - Mady Mesplé - Lombard - CD 2\CD\21 Vivant !... Ah ! Frédéric !.wav
Peak level 80.7 %
Extraction speed 7.1 X
Track quality 99.9 %
Test CRC 1D120219
Copy CRC 1D120219
Track not present in AccurateRip database
Copy OK
Track 22
Filename E:\MUSIC\My Music\Delibes - Lakme\Delibes - Lakme - Mady Mesplé - Lombard - CD 2\CD\22 Ils allaient deux à deux.wav
Peak level 23.1 %
Extraction speed 7.4 X
Track quality 100.0 %
Test CRC FC84E40E
Copy CRC FC84E40E
Track not present in AccurateRip database
Copy OK
Track 23
Filename E:\MUSIC\My Music\Delibes - Lakme\Delibes - Lakme - Mady Mesplé - Lombard - CD 2\CD\23 Ce n'est plus toi !.wav
Peak level 88.6 %
Extraction speed 7.4 X
Track quality 100.0 %
Test CRC CD474889
Copy CRC CD474889
Track not present in AccurateRip database
Copy OK
Track 24
Filename E:\MUSIC\My Music\Delibes - Lakme\Delibes - Lakme - Mady Mesplé - Lombard - CD 2\CD\24 Ciel !... Alerte !... Nos soldats !.wav
Peak level 78.0 %
Extraction speed 7.5 X
Track quality 100.0 %
Test CRC 0FAE4EA7
Copy CRC 0FAE4EA7
Track not present in AccurateRip database
Copy OK
Track 25
Filename E:\MUSIC\My Music\Delibes - Lakme\Delibes - Lakme - Mady Mesplé - Lombard - CD 2\CD\25 Tu m'as donné le plus doux rêve.wav
Peak level 34.9 %
Extraction speed 8.1 X
Track quality 100.0 %
Test CRC F32B4439
Copy CRC F32B4439
Track not present in AccurateRip database
Copy OK
Track 26
Filename E:\MUSIC\My Music\Delibes - Lakme\Delibes - Lakme - Mady Mesplé - Lombard - CD 2\CD\26 Ce que je lis sur ton visage.wav
Peak level 78.6 %
Extraction speed 9.3 X
Track quality 100.0 %
Test CRC 3B2EB4B6
Copy CRC 3B2EB4B6
Track not present in AccurateRip database
Copy OK
Track 27
Filename E:\MUSIC\My Music\Delibes - Lakme\Delibes - Lakme - Mady Mesplé - Lombard - CD 2\CD\27 C'est lui ! C'est lui !.wav
Peak level 83.7 %
Extraction speed 9.5 X
Track quality 100.0 %
Test CRC 48E7134E
Copy CRC 48E7134E
Track not present in AccurateRip database
Copy OK
None of the tracks are present in the AccurateRip database
No errors occurred
End of status report
==== Log checksum 66F80195F6A93CD515851983AA5494B955EEFF2FFDD3C423F76787328A1D47C7 ====

Содержание индексной карты (.CUE)Содержание индексной карты (.CUE) CD 1

FILE "01 Prйlude.flac" FLAC
REM FILE-DECODED-SIZE 03:23:71
TRACK 01 AUDIO
TITLE "01 Prйlude"
INDEX 01 00:00:00
FILE "02 1. Akt - А l'heure accoutumйe.flac" FLAC
REM FILE-DECODED-SIZE 03:03:01
TRACK 02 AUDIO
TITLE "02 1. Akt - А l'heure accoutumйe"
INDEX 01 00:00:00
FILE "03 Blanche Dourga, pвle Siva !.flac" FLAC
REM FILE-DECODED-SIZE 04:03:11
TRACK 03 AUDIO
TITLE "03 Blanche Dourga, pвle Siva !"
INDEX 01 00:00:00
FILE "04 Lakmй, c'est toi qui nous protиges !.flac" FLAC
REM FILE-DECODED-SIZE 03:14:56
TRACK 04 AUDIO
TITLE "04 Lakmй, c'est toi qui nous protиges !"
INDEX 01 00:00:00
FILE "05 Viens, Mallika.flac" FLAC
REM FILE-DECODED-SIZE 01:06:46
TRACK 05 AUDIO
TITLE "05 Viens, Mallika"
INDEX 01 00:00:00
FILE "06 Dфme йpais le jasmin а la rose s'assemble.flac" FLAC
REM FILE-DECODED-SIZE 04:44:61
TRACK 06 AUDIO
TITLE "06 Dфme йpais le jasmin а la rose s'assemble"
INDEX 01 00:00:00
FILE "07 Miss Rose, Miss Ellen, respectez les Clфtures !.flac" FLAC
REM FILE-DECODED-SIZE 02:30:41
TRACK 07 AUDIO
TITLE "07 Miss Rose, Miss Ellen, respectez les Clфtures !"
INDEX 01 00:00:00
FILE "08 Quand une femme est si jolie.flac" FLAC
REM FILE-DECODED-SIZE 05:01:15
TRACK 08 AUDIO
TITLE "08 Quand une femme est si jolie"
INDEX 01 00:00:00
FILE "09 Nous commettons un sacrilиge.flac" FLAC
REM FILE-DECODED-SIZE 01:24:05
TRACK 09 AUDIO
TITLE "09 Nous commettons un sacrilиge"
INDEX 01 00:00:00
FILE "10 Prendre le dessin d'un bijou.flac" FLAC
REM FILE-DECODED-SIZE 01:36:38
TRACK 10 AUDIO
TITLE "10 Prendre le dessin d'un bijou"
INDEX 01 00:00:00
FILE "11 Fantaisie aux divins mensonges.flac" FLAC
REM FILE-DECODED-SIZE 03:36:29
TRACK 11 AUDIO
TITLE "11 Fantaisie aux divins mensonges"
INDEX 01 00:00:00
FILE "12 Non ! je ne veux pas tocher.flac" FLAC
REM FILE-DECODED-SIZE 03:14:65
TRACK 12 AUDIO
TITLE "12 Non ! je ne veux pas tocher"
INDEX 01 00:00:00
FILE "13 Les fleurs me paraissent plus belles.flac" FLAC
REM FILE-DECODED-SIZE 01:07:36
TRACK 13 AUDIO
TITLE "13 Les fleurs me paraissent plus belles"
INDEX 01 00:00:00
FILE "14 Pourquoi dans les grands bois.flac" FLAC
REM FILE-DECODED-SIZE 03:22:68
TRACK 14 AUDIO
TITLE "14 Pourquoi dans les grands bois"
INDEX 01 00:00:00
FILE "15 Ah ! Mallika ! Mallika !.flac" FLAC
REM FILE-DECODED-SIZE 00:54:23
TRACK 15 AUDIO
TITLE "15 Ah ! Mallika ! Mallika !"
INDEX 01 00:00:00
FILE "16 D'oщ viens-tu Que veux-tu.flac" FLAC
REM FILE-DECODED-SIZE 04:06:08
TRACK 16 AUDIO
TITLE "16 D'oщ viens-tu Que veux-tu"
INDEX 01 00:00:00
FILE "17 C'est le dieu de la jeunesse.flac" FLAC
REM FILE-DECODED-SIZE 03:44:27
TRACK 17 AUDIO
TITLE "17 C'est le dieu de la jeunesse"
INDEX 01 00:00:00
FILE "18 Viens ! lа ! lа !.flac" FLAC
REM FILE-DECODED-SIZE 01:44:19
TRACK 18 AUDIO
TITLE "18 Viens ! lа ! lа !"
INDEX 01 00:00:00
FILE "19 2. Akt - Entracte.flac" FLAC
REM FILE-DECODED-SIZE 01:14:70
TRACK 19 AUDIO
TITLE "19 2. Akt - Entracte"
INDEX 01 00:00:00
FILE "20 Allons, avant que midi sonne.flac" FLAC
REM FILE-DECODED-SIZE 02:01:28
TRACK 20 AUDIO
TITLE "20 Allons, avant que midi sonne"
INDEX 01 00:00:00
FILE "21 Ces йgoistes peu formalistes.flac" FLAC
REM FILE-DECODED-SIZE 02:29:19
TRACK 21 AUDIO
TITLE "21 Ces йgoistes peu formalistes"
INDEX 01 00:00:00
FILE "22 Enfin ! Nous aurons du silence !.flac" FLAC
REM FILE-DECODED-SIZE 01:00:44
TRACK 22 AUDIO
TITLE "22 Enfin ! Nous aurons du silence !"
INDEX 01 00:00:00
FILE "23 Tдnze - Introduction.flac" FLAC
REM FILE-DECODED-SIZE 00:26:26
TRACK 23 AUDIO
TITLE "23 Tдnze - Introduction"
INDEX 01 00:00:00
FILE "24 Terвna.flac" FLAC
REM FILE-DECODED-SIZE 01:47:22
TRACK 24 AUDIO
TITLE "24 Terвna"
INDEX 01 00:00:00
FILE "25 Rektah.flac" FLAC
REM FILE-DECODED-SIZE 01:05:39
TRACK 25 AUDIO
TITLE "25 Rektah"
INDEX 01 00:00:00
FILE "26 Persian.flac" FLAC
REM FILE-DECODED-SIZE 01:45:40
TRACK 26 AUDIO
TITLE "26 Persian"
INDEX 01 00:00:00
FILE "27 Coda.flac" FLAC
REM FILE-DECODED-SIZE 01:01:73
TRACK 27 AUDIO
TITLE "27 Coda"
INDEX 01 00:00:00
FILE "28 Sortie.flac" FLAC
REM FILE-DECODED-SIZE 00:42:14
TRACK 28 AUDIO
TITLE "28 Sortie"
INDEX 01 00:00:00
FILE "29 Voyez donc ce vieillard et cette jeune fille !.flac" FLAC
REM FILE-DECODED-SIZE 03:40:29
TRACK 29 AUDIO
TITLE "29 Voyez donc ce vieillard et cette jeune fille !"
INDEX 01 00:00:00
FILE "30 Ah ! co vieillard encore !... C'est un pauvre qui mendie.flac" FLAC
REM FILE-DECODED-SIZE 01:50:36
TRACK 30 AUDIO
TITLE "30 Ah ! co vieillard encore !... C'est un pauvre qui mendie"
INDEX 01 00:00:00
FILE "31 Lakmй, ton doux regard se voile.flac" FLAC
REM FILE-DECODED-SIZE 04:11:00
TRACK 31 AUDIO
TITLE "31 Lakmй, ton doux regard se voile"
INDEX 01 00:00:00

Содержание индексной карты (.CUE) CD 2

FILE "01 Ah ! c'est de ta douleur.flac" FLAC
REM FILE-DECODED-SIZE 01:54:54
TRACK 01 AUDIO
TITLE "01 Ah ! c'est de ta douleur"
INDEX 01 00:00:00
FILE "02 Ah ! Par les dieux inspirйe.flac" FLAC
REM FILE-DECODED-SIZE 01:59:67
TRACK 02 AUDIO
TITLE "02 Ah ! Par les dieux inspirйe"
INDEX 01 00:00:00
FILE "03 Oщ va la jeune hindoue.flac" FLAC
REM FILE-DECODED-SIZE 02:15:39
TRACK 03 AUDIO
TITLE "03 Oщ va la jeune hindoue"
INDEX 01 00:00:00
FILE "04 Lа-bas dans la forкt plus sombre.flac" FLAC
REM FILE-DECODED-SIZE 04:11:52
TRACK 04 AUDIO
TITLE "04 Lа-bas dans la forкt plus sombre"
INDEX 01 00:00:00
FILE "05 La rage me dйvore.flac" FLAC
REM FILE-DECODED-SIZE 03:40:30
TRACK 05 AUDIO
TITLE "05 La rage me dйvore"
INDEX 01 00:00:00
FILE "06 Au milieu des chants d'allйgresse.flac" FLAC
REM FILE-DECODED-SIZE 03:55:53
TRACK 06 AUDIO
TITLE "06 Au milieu des chants d'allйgresse"
INDEX 01 00:00:00
FILE "07 Le maоtre ne pense qu'а sa vengeance.flac" FLAC
REM FILE-DECODED-SIZE 01:56:27
TRACK 07 AUDIO
TITLE "07 Le maоtre ne pense qu'а sa vengeance"
INDEX 01 00:00:00
FILE "08 Lakmй ! Lakmй ! C'est toi !.flac" FLAC
REM FILE-DECODED-SIZE 02:20:57
TRACK 08 AUDIO
TITLE "08 Lakmй ! Lakmй ! C'est toi !"
INDEX 01 00:00:00
FILE "09 Ah ! c'est l'amour endormi.flac" FLAC
REM FILE-DECODED-SIZE 01:36:73
TRACK 09 AUDIO
TITLE "09 Ah ! c'est l'amour endormi"
INDEX 01 00:00:00
FILE "10 Dans la forкt prиs de nous.flac" FLAC
REM FILE-DECODED-SIZE 03:16:06
TRACK 10 AUDIO
TITLE "10 Dans la forкt prиs de nous"
INDEX 01 00:00:00
FILE "11 Ф douce enchanteresse, parle parle toujours !.flac" FLAC
REM FILE-DECODED-SIZE 01:50:06
TRACK 11 AUDIO
TITLE "11 Ф douce enchanteresse, parle parle toujours !"
INDEX 01 00:00:00
FILE "12 Ф dourga, toi qui renais... Dourga, entends nos voix !.flac" FLAC
REM FILE-DECODED-SIZE 02:16:33
TRACK 12 AUDIO
TITLE "12 Ф dourga, toi qui renais... Dourga, entends nos voix !"
INDEX 01 00:00:00
FILE "13 Voyez cette ville en fкte !.flac" FLAC
REM FILE-DECODED-SIZE 03:34:20
TRACK 13 AUDIO
TITLE "13 Voyez cette ville en fкte !"
INDEX 01 00:00:00
FILE "14 C'est un rкve, une folie.flac" FLAC
REM FILE-DECODED-SIZE 03:00:69
TRACK 14 AUDIO
TITLE "14 C'est un rкve, une folie"
INDEX 01 00:00:00
FILE "15 3. Akt - Entracte.flac" FLAC
REM FILE-DECODED-SIZE 03:58:49
TRACK 15 AUDIO
TITLE "15 3. Akt - Entracte"
INDEX 01 00:00:00
FILE "16 Sous le ciel tout иtoilи.flac" FLAC
REM FILE-DECODED-SIZE 03:52:16
TRACK 16 AUDIO
TITLE "16 Sous le ciel tout иtoilи"
INDEX 01 00:00:00
FILE "17 Quel vague souvenir alourdit ma pensйe.flac" FLAC
REM FILE-DECODED-SIZE 02:27:59
TRACK 17 AUDIO
TITLE "17 Quel vague souvenir alourdit ma pensйe"
INDEX 01 00:00:00
FILE "18 Lakmй ! Lakmй ! Lakmй ! Ah ! viens, dans la forкt profonde.flac" FLAC
REM FILE-DECODED-SIZE 02:04:60
TRACK 18 AUDIO
TITLE "18 Lakmй ! Lakmй ! Lakmй ! Ah ! viens, dans la forкt profonde"
INDEX 01 00:00:00
FILE "19 Lа, je pourrai t'entendre.flac" FLAC
REM FILE-DECODED-SIZE 01:27:57
TRACK 19 AUDIO
TITLE "19 Lа, je pourrai t'entendre"
INDEX 01 00:00:00
FILE "20 Descendons la pente doucement.flac" FLAC
REM FILE-DECODED-SIZE 03:34:70
TRACK 20 AUDIO
TITLE "20 Descendons la pente doucement"
INDEX 01 00:00:00
FILE "21 Vivant !... Ah ! Frйdйric !.flac" FLAC
REM FILE-DECODED-SIZE 04:16:45
TRACK 21 AUDIO
TITLE "21 Vivant !... Ah ! Frйdйric !"
INDEX 01 00:00:00
FILE "22 Ils allaient deux а deux.flac" FLAC
REM FILE-DECODED-SIZE 01:47:44
TRACK 22 AUDIO
TITLE "22 Ils allaient deux а deux"
INDEX 01 00:00:00
FILE "23 Ce n'est plus toi !.flac" FLAC
REM FILE-DECODED-SIZE 01:34:64
TRACK 23 AUDIO
TITLE "23 Ce n'est plus toi !"
INDEX 01 00:00:00
FILE "24 Ciel !... Alerte !... Nos soldats !.flac" FLAC
REM FILE-DECODED-SIZE 01:32:58
TRACK 24 AUDIO
TITLE "24 Ciel !... Alerte !... Nos soldats !"
INDEX 01 00:00:00
FILE "25 Tu m'as donnй le plus doux rкve.flac" FLAC
REM FILE-DECODED-SIZE 02:02:56
TRACK 25 AUDIO
TITLE "25 Tu m'as donnй le plus doux rкve"
INDEX 01 00:00:00
FILE "26 Ce que je lis sur ton visage.flac" FLAC
REM FILE-DECODED-SIZE 03:46:68
TRACK 26 AUDIO
TITLE "26 Ce que je lis sur ton visage"
INDEX 01 00:00:00
FILE "27 C'est lui ! C'est lui !.flac" FLAC
REM FILE-DECODED-SIZE 04:07:05
TRACK 27 AUDIO
TITLE "27 C'est lui ! C'est lui !"
INDEX 01 00:00:00

Треклист

Disc 1:
1. Prélude
Act I:
2. A l'heure accoutumée (Mallika/Hadji/Choeur/Nilakantha)
3. Blanche Dourga, Pâle Siva ! (Lakmé, Choeur, Nilakantha) (Remasterisé En 2002)
4. Lakmé, c'est toi qui nous protèges! (Nilakantha/Lakmé/Hadji/Mallika)
5. Viens, Mallika (Lakmé/Mallika)
6. Dôme épais le jasmin à la rose s'assemble (Lakmé/Mallika)
7. Miss Rose, Miss Ellen, respectez les clôtures! (Miss Bentson/Ellen/Rose/Gérald/Frédéric)
8. Quand une femme est si jolie (Miss Bentson/Ellen/Rose/Gérald/Frédéric)
9. Nous commettons un sacrilège (Miss Bentson/Ellen/Rose/Gérald/Frédéric)
10. Prendre le dessin d'un bijou (Gérald)
11. Fantaisie aux divins mensonges (Gérald)
12. Non! je ne veux pas toucher (Gérald/Lakmé/Mallika)
13. Les fleurs me paraissent plus belles (Lakmé)
14. Pourquoi dans les grands bois (Lakmé)
15. Ah! Mallika! Mallika! (Lakmé/Mallika/Hadji)
16. D'où viens-tu? Que veux-tu? (Lakmé/Gérald)
17. C'est le dieu de la jeunesse (Lakmé/Gérald)
18. Viens! là! là! (Hadji/Nilakantha/Lakmé/Choeur)
19. Entr'acte (Orchestre)
Act II:
20. Alllons, avant que midi sonne (Choeur)
21. Ces égoïstes, peu formalistes (Miss Bentson/Choeur/Frédéric/Rose)
22. Enfin! Nous aurons du silence! (Miss Bentson/Frédéric/Rose)
Airs de danse (Orchestre):
23. Terâna (Orchestre)
24. Rektah (Orchestre)
25. Persian (Orchestre avec choeur)
26. Coda (Orchestre avec choeur)
27. Sortie (Orchestre)
28. Voyez donc ce vieillard et cette jeune fille! (Rose/Frédéric/Miss Bentson/Ellen/Gérald)
29. Ah! ce vieillard encore...C'est un pauvre qui mendie (Rose/Nilakantha/Lakmé)
30. Lakmé, ton doux regard se voile (Nilakantha)
31. Ah! c'est de ta douleur (Lakmé/Nilakantha)
Disc 2:
1. Ah!...Par les dieux inspirée (Lakmé/Nilakantha/Choeur)
2. Où va la jeune indoue (Lakmé)
3. Là-bas dans la forêt plus sombre (Lakmé)
4. La rage me dévore (Nilakantha/Lakmé/Choeur/Gérald/Frédéric)
5. Au milieu des chants d'allégresse (Nilakantha/Choeur/Lakmé)
6. Le maître ne pense qu'à sa vengeance (Hadji)
7. Lakmé! Lakmé! C'est toi! (Gérald/Lakmé)
8. Ah! c'est l'amour endormi (Gérald/Lakmé)
9. Dans la forêt près de nous (Gérald/Lakmé)
10. Ô douce enchanteresse, parle, parle toujours! (Gérald/Lakmé)
11. Ô Dourga, toi qui renais....Dourga, entends nos voix! (Choeur)
12. Voyez cette ville en fête! (Ellen/Rose/Miss Bentson/Frédéric/Gérald/Choeur)
13. C'est un rêve, une folie (Gérald/Choeur/Lakmé)
14. Entr'acte
Act III:
15. Sous le ciel tout étoilé (Lakmé)
16. Quel vague souvenir alourdit ma pensée? (Gérald/Lakmé)
17. Lakmé! Lakmé! Lakmé! Ah! viens, dans la forêt profonde (Gérald)
18. Là, je pourrai t'entendre (Lakmé/Choeur/Gérald)
19. Descendons la pente doucement (Lakmé/Choeur/Gérald)
20. Vivant!...Ah! Frédéric! (Frédéric/Gérald)
21. Ils allaient deux à deux (Lakmé)
22. Ce n'est plus toi! (Lakmé/Gérald)
23. Ciel!...Alerte!...Nos soldats! (Gérald/Choeur/Lakmé)
24. Tu m'as donné le plus doux rêve (Lakmé)
25. Ce que je lis sur ton visage (Gérald/Lakmé)
26. C'est lui! C'est lui! (Nilakantha/Lakmé/Gérald)



Показать сообщения:    

Текущее время: 04-Дек 19:22

Часовой пояс: UTC + 3


Вы не можете начинать темы
Вы не можете отвечать на сообщения
Вы не можете редактировать свои сообщения
Вы не можете удалять свои сообщения
Вы не можете голосовать в опросах
Вы не можете прикреплять файлы к сообщениям
Вы не можете скачивать файлы