(Opera, Vocal) Jose Carreras - Portrait of the Artist: early live recordings [Arias and Scenes by Giuseppe Verdi and Giacomo Puccini] (1972-1976), FLAC (tracks+.cue), lossless


 

[Цитировать]

Jose Carreras - Portrait of the Artist: early live recordings (1972-1976)
Жанр: Opera, Vocal
Страна-производитель диска: Италия
Год издания диска: 1988
Издатель (лейбл): Legato Classics
Дата записи: 1972-1976
Аудиокодек: FLAC
Тип рипа: tracks+.cue
Битрейт аудио: lossless
Продолжительность: 71:28
Источник: релизер (Guillermo)
Исполнители:
Jose Carreras, tenor,
Teresa Stratas, soprano (track 2),
Renato Scotto, soprano (track 11).

Лог создания рипа

Exact Audio Copy V1.0 beta 3 from 29. August 2011
EAC extraction logfile from 13. July 2015, 20:20
Jos� Carreras / Portrait of the artist: Jos� Carreras
Used drive : HL-DT-STDVDRAM GH24NSC0 Adapter: 3 ID: 0
Read mode : Secure
Utilize accurate stream : Yes
Defeat audio cache : Yes
Make use of C2 pointers : No
Read offset correction : 6
Overread into Lead-In and Lead-Out : No
Fill up missing offset samples with silence : Yes
Delete leading and trailing silent blocks : No
Null samples used in CRC calculations : Yes
Used interface : Native Win32 interface for Win NT & 2000
Gap handling : Appended to previous track
Used output format : User Defined Encoder
Selected bitrate : 768 kBit/s
Quality : High
Add ID3 tag : No
Command line compressor : C:\Program Files (x86)\Exact Audio Copy\FLAC\FLAC.EXE
Additional command line options : -8 -V -T "ARTIST=%artist%" -T "TITLE=%title%" -T "ALBUM=%albumtitle%" -T "DATE=%year%" -T "TRACKNUMBER=%tracknr%" -T "GENRE=%genre%" -T "PERFORMER=%albuminterpret%" -T "COMPOSER=%composer%" %haslyrics%--tag-from-file=LYRICS="%lyricsfile%"%haslyrics% -T "ALBUMARTIST=%albumartist%" -T "DISCNUMBER=%cdnumber%" -T "TOTALDISCS=%totalcds%" -T "TOTALTRACKS=%numtracks%" -T "COMMENT=%comment%" %source% -o %dest%
TOC of the extracted CD
Track | Start | Length | Start sector | End sector
---------------------------------------------------------
1 | 0:00.07 | 5:34.58 | 7 | 25114
2 | 5:34.65 | 5:54.07 | 25115 | 51671
3 | 11:28.72 | 7:01.70 | 51672 | 83316
4 | 18:30.67 | 2:02.58 | 83317 | 92524
5 | 20:33.50 | 3:07.10 | 92525 | 106559
6 | 23:40.60 | 3:11.60 | 106560 | 120944
7 | 26:52.45 | 2:38.37 | 120945 | 132831
8 | 29:31.07 | 3:41.30 | 132832 | 149436
9 | 33:12.37 | 7:12.45 | 149437 | 181881
10 | 40:25.07 | 4:08.10 | 181882 | 200491
11 | 44:33.17 | 3:46.15 | 200492 | 217456
12 | 48:19.32 | 1:50.13 | 217457 | 225719
13 | 50:09.45 | 7:18.37 | 225720 | 258606
14 | 57:28.07 | 2:14.40 | 258607 | 268696
15 | 59:42.47 | 3:38.68 | 268697 | 285114
16 | 63:21.40 | 10:01.72 | 285115 | 330261
Track 1
Filename f:\Users\Guillermo\Desktop\EAC convertidos\01 Che gelida manina (1973) - Puccini- La Boheme.wav
Pre-gap length 0:00:02.09
Peak level 68.9 %
Extraction speed 1.7 X
Track quality 100.0 %
Test CRC D0C622B6
Copy CRC D0C622B6
Copy OK
Track 2
Filename f:\Users\Guillermo\Desktop\EAC convertidos\02 Marcello, finalmente (1973) - Puccini- La Boheme.wav
Pre-gap length 0:00:04.06
Peak level 63.0 %
Extraction speed 2.0 X
Track quality 100.0 %
Test CRC 119927B7
Copy CRC 119927B7
Copy OK
Track 3
Filename f:\Users\Guillermo\Desktop\EAC convertidos\03 Dovunque al mondo (1974) - Puccini- Madama Butterfly.wav
Pre-gap length 0:00:04.86
Peak level 60.5 %
Extraction speed 2.3 X
Track quality 100.0 %
Test CRC 1C1659F1
Copy CRC 1C1659F1
Copy OK
Track 4
Filename f:\Users\Guillermo\Desktop\EAC convertidos\04 Addio fiorito asil ((1974) - Puccini- Madama Butterfly.wav
Pre-gap length 0:00:05.02
Peak level 64.8 %
Extraction speed 1.9 X
Track quality 100.0 %
Test CRC C6620152
Copy CRC C6620152
Copy OK
Track 5
Filename f:\Users\Guillermo\Desktop\EAC convertidos\05 Recondita armonia (1973) - Puccini- Tosca.wav
Pre-gap length 0:00:04.04
Peak level 66.8 %
Extraction speed 2.2 X
Track quality 100.0 %
Test CRC 708B95AD
Copy CRC 708B95AD
Copy OK
Track 6
Filename f:\Users\Guillermo\Desktop\EAC convertidos\06 E lucevan le stelle (1973) - Puccini- Tosca.wav
Pre-gap length 0:00:05.13
Peak level 62.8 %
Extraction speed 1.9 X
Track quality 99.8 %
Test CRC 94649FF7
Copy CRC 94649FF7
Copy OK
Track 7
Filename f:\Users\Guillermo\Desktop\EAC convertidos\07 La rivedra nell'estasi (1972) - Verdi- Un Ballo in Maschera.wav
Pre-gap length 0:00:02.60
Peak level 59.6 %
Extraction speed 2.3 X
Track quality 100.0 %
Test CRC 7FA73D4C
Copy CRC 7FA73D4C
Copy OK
Track 8
Filename f:\Users\Guillermo\Desktop\EAC convertidos\08 Di tu se fedele (1972) - Verdi- Un Ballo in Maschera.wav
Pre-gap length 0:00:06.80
Peak level 61.6 %
Extraction speed 2.5 X
Track quality 100.0 %
Test CRC 59531979
Copy CRC 59531979
Copy OK
Track 9
Filename f:\Users\Guillermo\Desktop\EAC convertidos\09 Forse la soglia attinse (1972) - Verdi- Un ballo in Maschera.wav
Pre-gap length 0:00:06.93
Peak level 56.1 %
Extraction speed 3.0 X
Track quality 100.0 %
Test CRC 9D49DDCF
Copy CRC 9D49DDCF
Copy OK
Track 10
Filename f:\Users\Guillermo\Desktop\EAC convertidos\10 De'miei bollenti spiriti (1973) - Verdi- La Traviata.wav
Pre-gap length 0:00:05.09
Peak level 40.4 %
Extraction speed 2.9 X
Track quality 100.0 %
Test CRC F44C2B7C
Copy CRC F44C2B7C
Copy OK
Track 11
Filename f:\Users\Guillermo\Desktop\EAC convertidos\11 Scena della borsa (1973) - Verdi- La Traviata.wav
Pre-gap length 0:00:05.89
Peak level 50.5 %
Extraction speed 2.9 X
Track quality 100.0 %
Test CRC CF08AA2F
Copy CRC CF08AA2F
Copy OK
Track 12
Filename f:\Users\Guillermo\Desktop\EAC convertidos\12 Questa o quella (1973) - Verdi- Rigoletto.wav
Pre-gap length 0:00:06.02
Peak level 57.0 %
Extraction speed 2.4 X
Track quality 100.0 %
Test CRC 29215553
Copy CRC 29215553
Copy OK
Track 13
Filename f:\Users\Guillermo\Desktop\EAC convertidos\13 Ella mi fu rapita...parmi veder le lagrime...possente amor mi chiama (1973) - Verdi- Rigoletto.wav
Pre-gap length 0:00:04.60
Peak level 62.4 %
Extraction speed 3.1 X
Track quality 99.9 %
Test CRC 3E736866
Copy CRC 3E736866
Copy OK
Track 14
Filename f:\Users\Guillermo\Desktop\EAC convertidos\14 La donna e mobile (1973) - Verdi- Rigoletto.wav
Pre-gap length 0:00:03.93
Peak level 59.2 %
Extraction speed 2.8 X
Track quality 100.0 %
Test CRC F88DAEA4
Copy CRC F88DAEA4
Copy OK
Track 15
Filename f:\Users\Guillermo\Desktop\EAC convertidos\15 Ingemisco (1974) - Verdi- Rigoletto.wav
Pre-gap length 0:00:03.62
Peak level 59.1 %
Extraction speed 2.7 X
Track quality 99.9 %
Test CRC 373E05C1
Copy CRC 373E05C1
Copy OK
Track 16
Filename f:\Users\Guillermo\Desktop\EAC convertidos\16 Oh! fede negar potessi...quando le sere al placido...l'ara, o l'avello apprestami... (1976) - Verdi- Luisa Miller.wav
Pre-gap length 0:00:05.84
Peak level 76.9 %
Extraction speed 3.5 X
Track quality 99.9 %
Test CRC 85110B69
Copy CRC 85110B69
Copy OK
No errors occurred
End of status report
==== Log checksum E0ADA622B4B9A93A8003A8CEADDFDE4783A0FAF90B4696B46F88EADFEAA1706D ====

Содержание индексной карты (.CUE)

REM GENRE Opera
REM DISCID CD113310
REM COMMENT "ExactAudioCopy v1.0b3"
FILE "01 Che gelida manina (1973) - Puccini- La Boheme.wav" WAVE
TRACK 01 AUDIO
PREGAP 00:00:07
INDEX 01 00:00:00
TRACK 02 AUDIO
INDEX 00 05:30:53
FILE "02 Marcello, finalmente (1973) - Puccini- La Boheme.wav" WAVE
INDEX 01 00:00:00
TRACK 03 AUDIO
INDEX 00 05:49:17
FILE "03 Dovunque al mondo (1974) - Puccini- Madama Butterfly.wav" WAVE
INDEX 01 00:00:00
TRACK 04 AUDIO
INDEX 00 06:56:68
FILE "04 Addio fiorito asil ((1974) - Puccini- Madama Butterfly.wav" WAVE
INDEX 01 00:00:00
TRACK 05 AUDIO
INDEX 00 01:58:55
FILE "05 Recondita armonia (1973) - Puccini- Tosca.wav" WAVE
INDEX 01 00:00:00
TRACK 06 AUDIO
INDEX 00 03:02:00
FILE "06 E lucevan le stelle (1973) - Puccini- Tosca.wav" WAVE
INDEX 01 00:00:00
TRACK 07 AUDIO
INDEX 00 03:09:15
FILE "07 La rivedra nell'estasi (1972) - Verdi- Un Ballo in Maschera.wav" WAVE
INDEX 01 00:00:00
TRACK 08 AUDIO
INDEX 00 02:31:52
FILE "08 Di tu se fedele (1972) - Verdi- Un Ballo in Maschera.wav" WAVE
INDEX 01 00:00:00
TRACK 09 AUDIO
INDEX 00 03:34:35
FILE "09 Forse la soglia attinse (1972) - Verdi- Un ballo in Maschera.wav" WAVE
INDEX 01 00:00:00
TRACK 10 AUDIO
INDEX 00 07:07:38
FILE "10 De'miei bollenti spiriti (1973) - Verdi- La Traviata.wav" WAVE
INDEX 01 00:00:00
TRACK 11 AUDIO
INDEX 00 04:02:18
FILE "11 Scena della borsa (1973) - Verdi- La Traviata.wav" WAVE
INDEX 01 00:00:00
TRACK 12 AUDIO
INDEX 00 03:40:13
FILE "12 Questa o quella (1973) - Verdi- Rigoletto.wav" WAVE
INDEX 01 00:00:00
TRACK 13 AUDIO
INDEX 00 01:45:43
FILE "13 Ella mi fu rapita...parmi veder le lagrime...possente amor mi chiama (1973) - Verdi- Rigoletto.wav" WAVE
INDEX 01 00:00:00
TRACK 14 AUDIO
INDEX 00 07:14:42
FILE "14 La donna e mobile (1973) - Verdi- Rigoletto.wav" WAVE
INDEX 01 00:00:00
TRACK 15 AUDIO
INDEX 00 02:10:68
FILE "15 Ingemisco (1974) - Verdi- Rigoletto.wav" WAVE
INDEX 01 00:00:00
TRACK 16 AUDIO
INDEX 00 03:33:05
FILE "16 Oh! fede negar potessi...quando le sere al placido...l'ara, o l'avello apprestami... (1976) - Verdi- Luisa Miller.wav" WAVE
INDEX 01 00:00:00

Треклист

Giacomo Puccini
La Bohème (1973):
1. "Che gelida manina" [05:28];
2. "Marcello, finalmente" (with Stratas) [05:50];
Madama Butterfly (1974):
3. "Dovunque al mondo" [06:54];
4. "Addio fiorito asil" [01:58];
Tosca (1973):
5. "Recondita armonia" [03:01];
6. "E lucevan le stelle" [03:08];
Giuseppe Verdi
Un ballo in maschera (1972):
7. "La rivedra nell'estasi" [02:30];
8. "Di tu se fedele" [03:33];
9. "Forse la soglia attinse... Ma s'e me forza perderti" [07:03];
La traviata (1973):
10. "De'miei bollenti spiriti" [04:00];
11. Scena della borsa (with Scotto) [03:35];
Rigoletto (1973):
12. "Questa o quella" [01:43];
13. "Ella mi fu rapita... Parmi veder le lagrime... Possente amor mi chiama" [07:11];
14. "La donna è mobile" [02:09];
15. Requiem: Ingemisco [03:30] (1974);
Luisa Miller (1976):
16. "Oh! Fede negar potessi... Quando le sere al placido... L'ara, o l'avello apprestami" [09:55].



Показать сообщения:    

Текущее время: 04-Дек 11:11

Часовой пояс: UTC + 3


Вы не можете начинать темы
Вы не можете отвечать на сообщения
Вы не можете редактировать свои сообщения
Вы не можете удалять свои сообщения
Вы не можете голосовать в опросах
Вы не можете прикреплять файлы к сообщениям
Вы не можете скачивать файлы