Ветер в ивах / The Wind in the Willows / Mr. Toad's Wild Ride (Терри Джонс / Terry Jones) [1996, Великобритания, мюзикл, фэнтези, комедия, приключения, семейный, DVDRip] VO (Владислав Огородников) + Original Eng


Статистика раздачи [Обновить пиров]
Размер:  1.46 GB   |    Зарегистрирован:  8 месяцев 21 день   |    Скачан:  1 раз

Полного источника не было: 1 месяц 18 дней

 
   
 
 
 

[Цитировать]

Ветер в ивах / The Wind in the Willows / Mr. Toad's Wild Ride
Страна: Великобритания
Жанр: мюзикл, фэнтези, комедия, приключения, семейный
Год выпуска: 1996
Продолжительность: 01:27:43
Перевод: Одноголосый закадровый Владислав Огородников
Cубтитры: нет
Оригинальная аудиодорожка: английский
Режиссер: Терри Джонс /Terry Jones
В ролях: Терри Джонс, Стив Куган, Эрик Айдл, Никол Уильямсон, Энтони Шер, Джон Клиз, Стивен Фрай, Бернард Хилл, Майкл Пэйлин, Найджел Плэйнер
Описание: Экранизация классической сказки Кеннета Грэма теперь открывает зрителю возможность самому поучаствовать в забавных и подчас опасных приключениях четырех верных друзей — спасти дом Крота от землетрясения, вызволить Жабу из тюрьмы и победить в битве коварных Ласок.
Сэмпл: http://multi-up.com/1058573

Качество видео: DVDRip - Исходник
Формат видео: AVI
Видео: 720x384 (1.88:1), 23.976 fps, XviD, 1989 kbps, 0.30 bit/pixel
Аудио 1: 48 kHz, AC3 Dolby Digital, 2/0 (L,R) ch, 192 kbps, VO (Огородников)
Аудио 2: 48 kHz, AC3 Dolby Digital, 2/0 (L,R) ch, 192 kbps, Original (Eng)

MediaInfo

General
Complete name : E:\Раздачи\rutracker.org\Veter_v_ivah_1.46_by_max1wq.avi
Format : AVI
Format/Info : Audio Video Interleave
File size : 1.46 GiB
Duration : 1h 27mn
Overall bit rate : 2 388 Kbps
Writing application : VirtualDubMod 1.5.10.2 (build 2540/release)
Writing library : VirtualDubMod build 2540/release
Video
ID : 0
Format : MPEG-4 Visual
Format profile : Advanced Simple@L5
Format settings, BVOP : 2
Format settings, QPel : No
Format settings, GMC : No warppoints
Format settings, Matrix : Custom
Codec ID : XVID
Codec ID/Hint : XviD
Duration : 1h 27mn
Bit rate : 1 990 Kbps
Width : 720 pixels
Height : 384 pixels
Display aspect ratio : 1.85:1
Frame rate : 23.976 fps
Color space : YUV
Chroma subsampling : 4:2:0
Bit depth : 8 bits
Scan type : Progressive
Compression mode : Lossy
Bits/(Pixel*Frame) : 0.300
Stream size : 1.22 GiB (83%)
Writing library : XviD 73
Audio #1
ID : 1
Format : AC-3
Format/Info : Audio Coding 3
Mode extension : CM (complete main)
Format settings, Endianness : Big
Codec ID : 2000
Duration : 1h 27mn
Bit rate mode : Constant
Bit rate : 192 Kbps
Channel(s) : 2 channels
Channel positions : Front: L R
Sampling rate : 48.0 KHz
Bit depth : 16 bits
Compression mode : Lossy
Stream size : 120 MiB (8%)
Alignment : Split accross interleaves
Interleave, duration : 42 ms (1.00 video frame)
Interleave, preload duration : 500 ms
Audio #2
ID : 2
Format : AC-3
Format/Info : Audio Coding 3
Mode extension : CM (complete main)
Format settings, Endianness : Big
Codec ID : 2000
Duration : 1h 27mn
Bit rate mode : Constant
Bit rate : 192 Kbps
Channel(s) : 2 channels
Channel positions : Front: L R
Sampling rate : 48.0 KHz
Bit depth : 16 bits
Compression mode : Lossy
Stream size : 120 MiB (8%)
Alignment : Split accross interleaves
Interleave, duration : 42 ms (1.00 video frame)
Interleave, preload duration : 500 ms

Скриншоты


[teatrix.ru].t21756.torrent 
Торрент: Зарегистрирован [ 2016-03-20 12:54 ] · BD062C99CEC8F1AD24584945C04DCB5075D2A96D

Скачать .torrent

Скачать

15 KB

Статус: проверено
Скачан: 1 раз
Размер: 1.46 GB
terms.php



Быстрый ответ

Имя:

      
Для отправки сообщений необходимо включить JavaScript
Показать сообщения:    

Текущее время: 11-Дек 07:12

Часовой пояс: UTC + 3


Вы можете начинать темы
Вы можете отвечать на сообщения
Вы не можете редактировать свои сообщения
Вы не можете удалять свои сообщения
Вы не можете голосовать в опросах
Вы не можете прикреплять файлы к сообщениям
Вы можете скачивать файлы