(Orchestral, vocal) Gustav Mahler - Symphonien Nrn. 3 • 6 • 10 [Adagio] • Kindertotenlieder | Symphonie Nr.8 [I. Hymne] (Sona Cervena | RSO Leipzig - Hermann Scherchen) - 1996, FLAC (image+.cue) lossless


 

[Цитировать]

Gustav MAHLER
Symphonie N°3 | Symphonie N°6 | Symphonie N°10 [Adagio]
Kindertotenlieder

Hermann SCHERCHEN
--- Жанр: Orchestral, vocal
Страна-производитель диска: France
Год издания диска: 1996
Издатель (лейбл): Tahra
Дата записи: 10.1960
Аудиокодек: FLAC
Тип рипа: image+.cue
Битрейт аудио: lossless
Продолжительность: 3:41'27''
Источник: собственный рип
Наличие сканов в содержимом раздачи: да
Треклист:

CD1

[01] Symphonie Nr.3: I. Kräftig entschieden
[02] II. Tempo di minuetto. Sehr mässig
[03] III. Comodo. Scherzando. Ohne Hast

Лог создания рипа

Exact Audio Copy V1.0 beta 3 from 29. August 2011
EAC extraction logfile from 7. May 2014, 23:26
Rundfunk Sinfonieorchester Leipzig - H.Scherchen / Hermann Scherchen in Leipzig, 1960 (CD1)
Used drive : COMPAQ CD-ROM LTN403 Adapter: 0 ID: 0
Read mode : Secure
Utilize accurate stream : Yes
Defeat audio cache : Yes
Make use of C2 pointers : No
Read offset correction : -1164
Overread into Lead-In and Lead-Out : No
Fill up missing offset samples with silence : Yes
Delete leading and trailing silent blocks : No
Null samples used in CRC calculations : Yes
Used interface : Native Win32 interface for Win NT & 2000
Used output format : User Defined Encoder
Selected bitrate : 1024 kBit/s
Quality : High
Add ID3 tag : No
Command line compressor : C:\Program Files\FLAC\flac.exe
Additional command line options : -T"COMMENT=rip by el coronel" -8 -V %source%
TOC of the extracted CD
Track | Start | Length | Start sector | End sector
---------------------------------------------------------
1 | 0:00.32 | 33:07.10 | 32 | 149066
2 | 33:07.42 | 9:21.58 | 149067 | 191199
3 | 42:29.25 | 15:15.07 | 191200 | 259831
Range status and errors
Selected range
Filename D:\Hermann Scherchen in Leipzig, 1960 (CD1).wav
Peak level 65.0 %
Extraction speed 3.0 X
Range quality 99.9 %
Test CRC 0F363B1D
Copy CRC 0F363B1D
Copy OK
No errors occurred
End of status report
==== Log checksum 675BD25C330146CC935F934F30B33EB13975D645BCA07B1FE6FAB3EE6381EA3D ====

Содержание индексной карты (.CUE)

REM GENRE Classical
REM DATE 1995
REM DISCID 2A0D8803
REM COMMENT "ExactAudioCopy v1.0b3"
PERFORMER "Rundfunk Sinfonieorchester Leipzig - H.Scherchen"
TITLE "Hermann Scherchen in Leipzig, 1960 (CD1)"
FILE "Hermann Scherchen in Leipzig, 1960 (CD1).flac" WAVE
TRACK 01 AUDIO
TITLE "Symphonie Nr.3: I Kraftig, entschieden"
PERFORMER "Rundfunk Sinfonieorchester Leipzig - H.Scherchen"
INDEX 00 00:00:00
INDEX 01 00:00:32
TRACK 02 AUDIO
TITLE "II. Tempo di minuetto. Sehr massig"
PERFORMER "Rundfunk Sinfonieorchester Leipzig - H.Scherchen"
INDEX 00 33:03:10
INDEX 01 33:07:42
TRACK 03 AUDIO
TITLE "III. Comodo. Scherzando. Ohne Hast"
PERFORMER "Rundfunk Sinfonieorchester Leipzig - H.Scherchen"
INDEX 00 42:26:66
INDEX 01 42:29:25

CD2

[01] Symphonie Nr.3: IV. Sehr langsam. Misterioso
[02] V. Lustig im Tempo und keck im Ausdruck
[03] VI. Langsam. Ruhevoll. Empfunden
[04] Symphonie Nr.10: I. Adagio

Лог создания рипа

Exact Audio Copy V1.0 beta 3 from 29. August 2011
EAC extraction logfile from 8. May 2014, 0:25
Rundfunk Sinfonieorchester Leipzig - H.Scherchen / Hermann Scherchen in Leipzig, 1960 (CD2)
Used drive : COMPAQ CD-ROM LTN403 Adapter: 0 ID: 0
Read mode : Secure
Utilize accurate stream : Yes
Defeat audio cache : Yes
Make use of C2 pointers : No
Read offset correction : -1164
Overread into Lead-In and Lead-Out : No
Fill up missing offset samples with silence : Yes
Delete leading and trailing silent blocks : No
Null samples used in CRC calculations : Yes
Used interface : Native Win32 interface for Win NT & 2000
Used output format : User Defined Encoder
Selected bitrate : 1024 kBit/s
Quality : High
Add ID3 tag : No
Command line compressor : C:\Program Files\FLAC\flac.exe
Additional command line options : -T"COMMENT=rip by el coronel" -8 -V %source%
TOC of the extracted CD
Track | Start | Length | Start sector | End sector
---------------------------------------------------------
1 | 0:00.32 | 9:34.50 | 32 | 43131
2 | 9:35.07 | 4:07.70 | 43132 | 61726
3 | 13:43.02 | 24:06.35 | 61727 | 170211
4 | 37:49.37 | 21:07.70 | 170212 | 265306
Range status and errors
Selected range
Filename D:\Hermann Scherchen in Leipzig, 1960 (CD2).wav
Peak level 92.1 %
Extraction speed 3.0 X
Range quality 100.0 %
Test CRC A1802C53
Copy CRC A1802C53
Copy OK
No errors occurred
End of status report
==== Log checksum 4B7D509F6A02A9B93DCE925D69A1A31E074882F3FE82CB71DAC2C27E68D1AF2C ====

Содержание индексной карты (.CUE)

REM GENRE Classical
REM DATE 1995
REM DISCID 300DD104
REM COMMENT "ExactAudioCopy v1.0b3"
PERFORMER "Rundfunk Sinfonieorchester Leipzig - H.Scherchen"
TITLE "Hermann Scherchen in Leipzig, 1960 (CD2)"
FILE "Hermann Scherchen in Leipzig, 1960 (CD2).flac" WAVE
TRACK 01 AUDIO
TITLE "Symphonie Nr.3: IV. Sehr langsam. Misterioso"
PERFORMER "Rundfunk Sinfonieorchester Leipzig - H.Scherchen"
INDEX 00 00:00:00
INDEX 01 00:00:32
TRACK 02 AUDIO
TITLE "V. Lustig im Tempo und keck im Ausdruck"
PERFORMER "Rundfunk Sinfonieorchester Leipzig - H.Scherchen"
INDEX 00 09:28:25
INDEX 01 09:35:07
TRACK 03 AUDIO
TITLE "VI. Langsam. Ruhevoll. Empfunden"
PERFORMER "Rundfunk Sinfonieorchester Leipzig - H.Scherchen"
INDEX 00 13:41:62
INDEX 01 13:43:02
TRACK 04 AUDIO
TITLE "Symphonie Nr.10: I. Adagio"
PERFORMER "Rundfunk Sinfonieorchester Leipzig - H.Scherchen"
INDEX 00 37:42:23
INDEX 01 37:49:37

CD3

[01] Symphonie Nr.6: I. Allegro energico, ma non troppo
[02] II. Andante moderato
[03] III. Scherzo
[04] IV. Allegro moderato

Лог создания рипа

Exact Audio Copy V1.0 beta 3 from 29. August 2011
EAC extraction logfile from 8. May 2014, 22:37
Rundfunk Sinfonieorchester Leipzig - H.Scherchen / Hermann Scherchen in Leipzig, 1960 (CD3)
Used drive : COMPAQ CD-ROM LTN403 Adapter: 0 ID: 0
Read mode : Secure
Utilize accurate stream : Yes
Defeat audio cache : Yes
Make use of C2 pointers : No
Read offset correction : -1164
Overread into Lead-In and Lead-Out : No
Fill up missing offset samples with silence : Yes
Delete leading and trailing silent blocks : No
Null samples used in CRC calculations : Yes
Used interface : Native Win32 interface for Win NT & 2000
Used output format : User Defined Encoder
Selected bitrate : 1024 kBit/s
Quality : High
Add ID3 tag : No
Command line compressor : C:\Program Files\FLAC\flac.exe
Additional command line options : -T"COMMENT=rip by el coronel" -8 -V %source%
TOC of the extracted CD
Track | Start | Length | Start sector | End sector
---------------------------------------------------------
1 | 0:00.33 | 14:05.27 | 33 | 63434
2 | 14:05.60 | 12:34.48 | 63435 | 120032
3 | 26:40.33 | 6:26.37 | 120033 | 149019
4 | 33:06.70 | 20:40.38 | 149020 | 242057
Range status and errors
Selected range
Filename D:\Hermann Scherchen in Leipzig, 1960 (CD3).wav
Peak level 100.0 %
Extraction speed 3.0 X
Range quality 100.0 %
Test CRC 2EB33BE7
Copy CRC 2EB33BE7
Copy OK
No errors occurred
End of status report
==== Log checksum F1B4C0C31443EBFB05463F4B1AEF2A6E7AB795FDC2A3349BFB40916541B14732 ====

Содержание индексной карты (.CUE)

REM GENRE Classical
REM DATE 1995
REM DISCID 380C9B04
REM COMMENT "ExactAudioCopy v1.0b3"
PERFORMER "Rundfunk Sinfonieorchester Leipzig - H.Scherchen"
TITLE "Hermann Scherchen in Leipzig, 1960 (CD3)"
FILE "Hermann Scherchen in Leipzig, 1960 (CD3).flac" WAVE
TRACK 01 AUDIO
TITLE "Symphonie Nr.6: I. Allegro energico, ma non troppo"
PERFORMER "Rundfunk Sinfonieorchester Leipzig - H.Scherchen"
INDEX 00 00:00:00
INDEX 01 00:00:33
TRACK 02 AUDIO
TITLE "II. Andante moderato"
PERFORMER "Rundfunk Sinfonieorchester Leipzig - H.Scherchen"
INDEX 01 14:05:60
TRACK 03 AUDIO
TITLE "III. Scherzo"
PERFORMER "Rundfunk Sinfonieorchester Leipzig - H.Scherchen"
INDEX 01 26:40:33
TRACK 04 AUDIO
TITLE "IV. Allegro moderato"
PERFORMER "Rundfunk Sinfonieorchester Leipzig - H.Scherchen"
INDEX 01 33:06:70

CD4

[01] Symphonie Nr.8: I. Hymne »Veni, creator spiritus«
Rita Meinl-Weise et Sigrid Ekkehard - soprano
Anneliese Müller et Gertraud Prenzlow - alto
Herbert Reinhold - tenor
Kurt Rehm - baryton
Willy Hayer-Krämer - bass
Choer et Orchester des Staatskapelle Berlin

[02] »Kindertotenlieder«: I. Nun will die Sonn
[03] II. Nun seh ich wohl
[04] III. Wenn dein Mütterlein
[05] IV. Oft denk' ich
[06] V. In diesem Wetter

Лог создания рипа

Exact Audio Copy V1.0 beta 3 from 29. August 2011
EAC extraction logfile from 8. May 2014, 23:45
Rundfunk Sinfonieorchester Leipzig - H.Scherchen / Hermann Scherchen in Leipzig, 1960 (CD4)
Used drive : COMPAQ CD-ROM LTN403 Adapter: 0 ID: 0
Read mode : Secure
Utilize accurate stream : Yes
Defeat audio cache : Yes
Make use of C2 pointers : No
Read offset correction : -1164
Overread into Lead-In and Lead-Out : No
Fill up missing offset samples with silence : Yes
Delete leading and trailing silent blocks : No
Null samples used in CRC calculations : Yes
Used interface : Native Win32 interface for Win NT & 2000
Used output format : User Defined Encoder
Selected bitrate : 1024 kBit/s
Quality : High
Add ID3 tag : No
Command line compressor : C:\Program Files\FLAC\flac.exe
Additional command line options : -T"COMMENT=rip by el coronel" -8 -V %source%
TOC of the extracted CD
Track | Start | Length | Start sector | End sector
---------------------------------------------------------
1 | 0:00.33 | 25:01.62 | 33 | 112669
2 | 25:02.20 | 5:43.53 | 112670 | 138447
3 | 30:45.73 | 5:00.15 | 138448 | 160962
4 | 35:46.13 | 4:47.60 | 160963 | 182547
5 | 40:33.73 | 3:15.12 | 182548 | 197184
6 | 43:49.10 | 7:10.23 | 197185 | 229457
Range status and errors
Selected range
Filename D:\Hermann Scherchen in Leipzig, 1960 (CD4).wav
Peak level 100.0 %
Extraction speed 3.0 X
Range quality 100.0 %
Test CRC 6C8FEB50
Copy CRC 6C8FEB50
Copy OK
No errors occurred
End of status report
==== Log checksum 4A6BCE2DF068B5CAF4C999B280BFD54D88366976D610063BE4B02D8F8F20A9B5 ====

Содержание индексной карты (.CUE)

REM GENRE Classical
REM DATE 1995
REM DISCID 490BF306
REM COMMENT "ExactAudioCopy v1.0b3"
PERFORMER "Rundfunk Sinfonieorchester Leipzig - H.Scherchen"
TITLE "Hermann Scherchen in Leipzig, 1960 (CD4)"
FILE "Hermann Scherchen in Leipzig, 1960 (CD4).flac" WAVE
TRACK 01 AUDIO
TITLE "Symphonie Nr.8: I. Hymne 'Veni, creator spiritus'"
PERFORMER "Staatskapelle Berlin - H.Scherchen"
INDEX 00 00:00:00
INDEX 01 00:00:33
TRACK 02 AUDIO
TITLE "'Kindertotenlieder': I. Nun will die Sonn'..."
PERFORMER "S.Cervena; Rundfunk Sinfonieorchester Leipzig - H.Scherchen"
INDEX 00 24:52:48
INDEX 01 25:02:20
TRACK 03 AUDIO
TITLE "II. Nun seh ich wohl..."
PERFORMER "S.Cervena; Rundfunk Sinfonieorchester Leipzig - H.Scherchen"
INDEX 00 30:41:60
INDEX 01 30:45:73
TRACK 04 AUDIO
TITLE "III. Wenn dein Mutterlein..."
PERFORMER "S.Cervena; Rundfunk Sinfonieorchester Leipzig - H.Scherchen"
INDEX 01 35:46:13
TRACK 05 AUDIO
TITLE "IV. Oft denk' ich..."
PERFORMER "S.Cervena; Rundfunk Sinfonieorchester Leipzig - H.Scherchen"
INDEX 00 40:33:65
INDEX 01 40:33:73
TRACK 06 AUDIO
TITLE "V. In diesem Wetter..."
PERFORMER "S.Cervena; Rundfunk Sinfonieorchester Leipzig - H.Scherchen"
INDEX 00 43:49:03
INDEX 01 43:49:10
Исполнители:
Soňa Červená - alto
Das Rundfunk-Sinfonieorchester Leipzig - Hermann Scherchen



Показать сообщения:    

Текущее время: 11-Дек 16:55

Часовой пояс: UTC + 3


Вы не можете начинать темы
Вы не можете отвечать на сообщения
Вы не можете редактировать свои сообщения
Вы не можете удалять свои сообщения
Вы не можете голосовать в опросах
Вы не можете прикреплять файлы к сообщениям
Вы не можете скачивать файлы