(Classical) Дюссек – Трио с флейтой; Фортепианная соната № 24; сонаты для фортепиано в четыре руки / Dussek – Piano sonatas & flute trio (Hanus Barton, Jana Macharackova, Jan Ostry, Jitka Vlasankova) - 1997, FLAC (image+.cue) lossless


 

[Цитировать]

Дюссек – Трио с флейтой; Фортепианная соната № 24; сонаты для фортепиано в четыре руки / Dussek – Piano sonatas & flute trio (Hanuš Bartoň, Jana Macharáčková, Jan Ostrý, Jitka Vlašánková)
Жанр: Classical
Страна-производитель диска: Чехия
Год издания диска: 1997
Издатель (лейбл): Matouš (Matous)
Номер по каталогу: MT 0046-2 131
Дата записи: сентябрь и октябрь 1997 г., Прага.
Аудиокодек: FLAC
Тип рипа: image+.cue
Битрейт аудио: lossless
Продолжительность: 01:14:00
Источник: odeonmusic
Наличие сканов в содержимом раздачи: да
Треклист:-Ян Ладислав Дюссек (1760 — 1812).-Большая соната для фортепиано в четыре руки C-dur, op. 48, C. 186 (ок. 1801).
01. I. Allegro [08:14].
02. II. Larghetto affet[t]uoso e non troppo lento [04:49].
03. III. Intermezzo. Allegretto moderato ma energico. — Rondo. Allegretto moderato [05:06].
Фортепианная соната № 24 fis-moll «Гармоническая элегия на смерть Луи Фердинанда», op. 61, C. 211 (1806 — 1807).
04. I. Lento patetico. — Tempo agitato [10:30].
05. II. Tempo vivace e con fuoco, quasi presto [05:28].
Три прогрессивных сонаты для фортепиано в четыре руки, op. 67 / 66 (1809).
Соната № 1 C-dur, C. 230
06. I. Andantino con moto [01:42].
07. II. Allegretto [01:45].
Соната № 2 F-dur, C. 231.
08. I. Allegro moderato [02:53].
09. II. Allegretto [01:59].
Соната № 3 B-dur, C. 232.
10. I. Allegro moderato [03:36].
11. II. Polonoise [03:13].
Соната F-dur для фортепиано в сопровождении флейты и виолончели, op. 65, C. 214 (1807).
12. I. Allegro espressivo [08:02].
13. II. Larghetto con un poco di moto [07:53].
14. III. Moderato assai [07:56].-Исполнители:
Hanuš Bartoň (фортепиано),
Jana Macharáčková (фортепиано, 1 — 3, 6 — 11),
Jan Ostrý (флейта),
Jitka Vlašánková (виолончель).-

Лог создания рипа

Exact Audio Copy V1.0 beta 3 from 29. August 2011
EAC extraction logfile from 20. September 2013, 10:18
Jan Ladislav Dussek / J.L. Dussek - Piano Sonatas, Trio - VA
Used drive : TSSTcorpCDDVDW SH-222BB Adapter: 2 ID: 1
Read mode : Secure
Utilize accurate stream : Yes
Defeat audio cache : Yes
Make use of C2 pointers : No
Read offset correction : 6
Overread into Lead-In and Lead-Out : No
Fill up missing offset samples with silence : Yes
Delete leading and trailing silent blocks : No
Null samples used in CRC calculations : Yes
Used interface : Native Win32 interface for Win NT & 2000
Used output format : User Defined Encoder
Selected bitrate : 1024 kBit/s
Quality : High
Add ID3 tag : No
Command line compressor : C:\Program Files\Exact Audio Copy\Flac\flac.exe
Additional command line options : -8 -V -T "TITLE=%title%" -T "ARTIST=%artist%" -T "ALBUMARTIST=%albumartist%" -T "ALBUM=%albumtitle%" -T "DATE=%year%" -T "TRACKNUMBER=%tracknr%" -T "TRACKTOTAL=%numtracks%" -T "GENRE=%genre%" -T "COMMENT=%comment%" -T "PERFORMER=%albuminterpret%" -T "COMPOSER=%composer%" %source% -o %dest%
TOC of the extracted CD
Track | Start | Length | Start sector | End sector
---------------------------------------------------------
1 | 0:00.32 | 8:18.73 | 32 | 37454
2 | 8:19.30 | 4:53.42 | 37455 | 59471
3 | 13:12.72 | 5:12.43 | 59472 | 82914
4 | 18:25.40 | 10:33.55 | 82915 | 130444
5 | 28:59.20 | 5:35.62 | 130445 | 155631
6 | 34:35.07 | 1:43.53 | 155632 | 163409
7 | 36:18.60 | 1:47.67 | 163410 | 171501
8 | 38:06.52 | 2:54.13 | 171502 | 184564
9 | 41:00.65 | 2:01.60 | 184565 | 193699
10 | 43:02.50 | 3:37.32 | 193700 | 210006
11 | 46:40.07 | 3:20.33 | 210007 | 225039
12 | 50:00.40 | 8:06.42 | 225040 | 261531
13 | 58:07.07 | 7:58.18 | 261532 | 297399
14 | 66:05.25 | 7:56.27 | 297400 | 333126
Range status and errors
Selected range
Filename G:\Ripped general\[8538] J.L. Dussek – Piano Sonatas, Trio – VA\J.L. Dussek - Piano Sonatas, Trio - VA.wav
Peak level 88.8 %
Extraction speed 2.3 X
Range quality 100.0 %
Test CRC 8A8637D5
Copy CRC 8A8637D5
Copy OK
No errors occurred
AccurateRip summary
Track 1 not present in database
Track 2 not present in database
Track 3 not present in database
Track 4 not present in database
Track 5 not present in database
Track 6 not present in database
Track 7 not present in database
Track 8 not present in database
Track 9 not present in database
Track 10 not present in database
Track 11 not present in database
Track 12 not present in database
Track 13 not present in database
Track 14 not present in database
None of the tracks are present in the AccurateRip database
End of status report

Содержание индексной карты (.CUE)

REM GENRE Classical
REM DISCID C411590E
REM COMMENT "ExactAudioCopy v1.0b3"
PERFORMER "Jan Ladislav Dussek"
TITLE "Dussek – Piano sonatas & trio – Hanus Barton et al."
FILE "Dussek – Piano sonatas & trio – Hanus Barton et al..flac" WAVE
TRACK 01 AUDIO
TITLE "Grande Sonate for piano (4 hands) in C major, Op. 48 - I. Allegro"
PERFORMER "Jan Ladislav Dussek"
INDEX 00 00:00:00
INDEX 01 00:00:32
TRACK 02 AUDIO
TITLE "Grande Sonate for piano (4 hands) in C major, Op. 48 - II. Larghetto affettuoso e non troppo lento"
PERFORMER "Jan Ladislav Dussek"
INDEX 00 08:15:55
INDEX 01 08:19:30
TRACK 03 AUDIO
TITLE "Grande Sonate for piano (4 hands) in C major, Op. 48 - III. Intermezzo - Rondo. Allegretto moderato"
PERFORMER "Jan Ladislav Dussek"
INDEX 00 13:08:65
INDEX 01 13:12:72
TRACK 04 AUDIO
TITLE "Piano Sonata No. 24 in F sharp minor, Op. 61 - I. Lento patetico - Tempo agitato"
PERFORMER "Jan Ladislav Dussek"
INDEX 00 18:19:30
INDEX 01 18:25:40
TRACK 05 AUDIO
TITLE "Piano Sonata No. 24 in F sharp minor, Op. 61 - II. Tempo vivace e con fuoco, quasi presto"
PERFORMER "Jan Ladislav Dussek"
INDEX 00 28:56:05
INDEX 01 28:59:20
TRACK 06 AUDIO
TITLE "Sonata for piano (4 hands) in C major, Op. 67 no. 1 - I. Andantino con moto"
PERFORMER "Jan Ladislav Dussek"
INDEX 00 34:28:12
INDEX 01 34:35:07
TRACK 07 AUDIO
TITLE "Sonata for piano (4 hands) in C major, Op. 67 no. 1 - II. Allegretto"
PERFORMER "Jan Ladislav Dussek"
INDEX 00 36:17:12
INDEX 01 36:18:60
TRACK 08 AUDIO
TITLE "Sonata for piano (4 hands) in F major, Op. 67 no. 2 - I. Allegro moderato"
PERFORMER "Jan Ladislav Dussek"
INDEX 00 38:04:05
INDEX 01 38:06:52
TRACK 09 AUDIO
TITLE "Sonata for piano (4 hands) in F major, Op. 67 no. 2 - II. Allegretto"
PERFORMER "Jan Ladislav Dussek"
INDEX 00 41:00:17
INDEX 01 41:00:65
TRACK 10 AUDIO
TITLE "Sonata for piano (4 hands) in B flat major, Op. 67 no. 3 - I. Allegro moderato"
PERFORMER "Jan Ladislav Dussek"
INDEX 00 43:00:10
INDEX 01 43:02:50
TRACK 11 AUDIO
TITLE "Sonata for piano (4 hands) in B flat major, Op. 67 no. 3 - II. Polonoise"
PERFORMER "Jan Ladislav Dussek"
INDEX 00 46:39:22
INDEX 01 46:40:07
TRACK 12 AUDIO
TITLE "Trio for flute, cello & piano, Op. 65 - I. Allegro espressivo"
PERFORMER "Jan Ladislav Dussek"
INDEX 00 49:53:17
INDEX 01 50:00:40
TRACK 13 AUDIO
TITLE "Trio for flute, cello & piano, Op. 65 - II. Larghetto con un poco di moto"
PERFORMER "Jan Ladislav Dussek"
INDEX 00 58:03:00
INDEX 01 58:07:07
TRACK 14 AUDIO
TITLE "Trio for flute, cello & piano, Op. 65 - III. Moderato assai"
PERFORMER "Jan Ladislav Dussek"
INDEX 00 66:00:27
INDEX 01 66:05:25
-



Показать сообщения:    

Текущее время: 03-Дек 05:25

Часовой пояс: UTC + 3


Вы не можете начинать темы
Вы не можете отвечать на сообщения
Вы не можете редактировать свои сообщения
Вы не можете удалять свои сообщения
Вы не можете голосовать в опросах
Вы не можете прикреплять файлы к сообщениям
Вы не можете скачивать файлы