(Opera) Erkel - Bank Ban • Hunyadi Laszlo [excerpts] (Jovikzky, Radnai, Kulkey, Szabo, Simandi, Szonyi - Budapest Phiharmonic Orchestra, Komor) - 2000, APE (image+.cue) lossless


 

[Цитировать]

Ferenc Erkel - Bank Bán • Hunyadi László [excerpts]
Жанр: Opera
Страна-производитель диска: Hungary
Год издания диска: 2000
Издатель (лейбл): Hungaroton
Номер по каталогу: HRC 1054
Дата записи: 1956
Аудиокодек: APE
Тип рипа: image+.cue
Битрейт аудио: lossless
Продолжительность: 78'34
Источник: собственный рип
Наличие сканов в содержимом раздачи: да
Треклист / Исполнители:
Bánk Bán
1. Act I: Prelude
2. Act II: Drinking Song: Bordalt, Petur
3. Act II: Aria: Mint szamuzott, ki vandoro!
4. Act II: Duet: A beketlenek terveit … Sebhely disziti homlokod
5. Act II: Aria: Olj meg engemet, Bank
6. Act II: Duet: Hol van feher homlokod liljom viraga?
7. Act II: Duet: Bank ban! Te itt?
8. Act III: Scene: Ne uljetek most a ladikra fel!
9. Act III: Finale: Oh, jaj nekem! Tiborc!
Ferenc Erkel - Bank Ban (excerpts)
Jozsef Joviczky, tenor
Gyorgi Radnai, baritone
Laszlo Kulkey, tenor
Janos Fodor, baritone
Julia Osvath, soprano
Rozsi Delly, mezzo-soprano
Hungarian State Opera Chorus
Budapest Philharmonic Orchestra
Vilmos KomorHunyadi László
10. Act I: March
11. Act I: Aria: O vegre egy par nyugodt pillanat!
12. Act I: Scene and Chorus: Megolve batyam … - Meghalt a cselszovo …
13. Act II: Aria: Mint a tenger, ugy viharzik …
14. Act II: Aria: Nagy eg, remegek!
15. Act III: Aria: Ah, szemembe' mamor, orom ragyog
16. Act III: Ballet: Csardas - Palotas
17. Act III: Scene: Aldjon meg Isten, en bajnokom
Ferenc Erkel - Hunyadi László (excerpts)
Miklos Szabo,tenor
Joszef Simandi, tenor
Olga Szonyu, mezzo-soprano
Gabriella Dery, soprano
Julia Orosz, soprano
Male Chorus of the Hungarian Army
Hungarian Radi Chorus
Budapest Philharmonic Orchestra
Vilmos Komor

Лог создания рипа

Exact Audio Copy V1.0 beta 3 from 29. August 2011
EAC extraction logfile from 24. July 2014, 11:07
Erkel / Bank ban - Hunyadi Lsszlo (excerpts), Ferencsik-Komor
Used drive : TSSTcorpCDDVDW SE-208AB Adapter: 1 ID: 0
Read mode : Secure
Utilize accurate stream : Yes
Defeat audio cache : Yes
Make use of C2 pointers : No
Read offset correction : 6
Overread into Lead-In and Lead-Out : No
Fill up missing offset samples with silence : Yes
Delete leading and trailing silent blocks : No
Null samples used in CRC calculations : Yes
Used interface : Native Win32 interface for Win NT & 2000
Used output format : Monkey's Audio Lossless Encoder
Selected bitrate : High Lossless Compression
Quality : High
Add ID3 tag : No
Command line compressor : C:\Program Files (x86)\Exact Audio Copy\MAC\MAC.exe
TOC of the extracted CD
Track | Start | Length | Start sector | End sector
---------------------------------------------------------
1 | 0:00.00 | 2:52.22 | 0 | 12921
2 | 2:52.22 | 2:36.21 | 12922 | 24642
3 | 5:28.43 | 2:48.50 | 24643 | 37292
4 | 8:17.18 | 9:58.20 | 37293 | 82162
5 | 18:15.38 | 3:34.56 | 82163 | 98268
6 | 21:50.19 | 3:45.38 | 98269 | 115181
7 | 25:35.57 | 11:47.05 | 115182 | 168211
8 | 37:22.62 | 2:04.03 | 168212 | 177514
9 | 39:26.65 | 5:12.17 | 177515 | 200931
10 | 44:39.07 | 1:26.16 | 200932 | 207397
11 | 46:05.23 | 5:13.01 | 207398 | 230873
12 | 51:18.24 | 3:58.03 | 230874 | 248726
13 | 55:16.27 | 7:03.72 | 248727 | 280523
14 | 62:20.24 | 5:41.42 | 280524 | 306140
15 | 68:01.66 | 3:49.38 | 306141 | 323353
16 | 71:51.29 | 3:40.04 | 323354 | 339857
17 | 75:31.33 | 3:03.25 | 339858 | 353607
Range status and errors
Selected range
Filename D:\EAC\Erkel - Bank ban - Hunyadi Lsszlo (excerpts), Ferencsik-Komor.wav
Peak level 96.6 %
Extraction speed 5.2 X
Range quality 99.9 %
Test CRC 639E99BC
Copy CRC 639E99BC
Copy OK
No errors occurred
AccurateRip summary
Track 1 accurately ripped (confidence 1) [1F311E81] (AR v1)
Track 2 accurately ripped (confidence 1) [EA51DBC4] (AR v1)
Track 3 accurately ripped (confidence 1) [D3DB2ECF] (AR v1)
Track 4 accurately ripped (confidence 1) [B041BDDF] (AR v1)
Track 5 accurately ripped (confidence 1) [8D85F16B] (AR v1)
Track 6 accurately ripped (confidence 1) [A460282E] (AR v1)
Track 7 accurately ripped (confidence 1) [85394F34] (AR v1)
Track 8 accurately ripped (confidence 1) [6BFE2301] (AR v1)
Track 9 accurately ripped (confidence 1) [0D1B9B67] (AR v1)
Track 10 accurately ripped (confidence 1) [37E45E1D] (AR v1)
Track 11 accurately ripped (confidence 1) [85D53D0A] (AR v1)
Track 12 accurately ripped (confidence 1) [7D86E347] (AR v1)
Track 13 accurately ripped (confidence 1) [BB224BC0] (AR v1)
Track 14 accurately ripped (confidence 1) [FE3BF31E] (AR v1)
Track 15 accurately ripped (confidence 1) [E83422E4] (AR v1)
Track 16 accurately ripped (confidence 1) [FADCB3C2] (AR v1)
Track 17 accurately ripped (confidence 1) [196A69BC] (AR v1)
All tracks accurately ripped
End of status report
---- CUETools DB Plugin V2.1.3
[CTDB TOCID: rJ3fKrMQnjQCTTlEtUm_i1Tv11w-] found, Submit result: rJ3fKrMQnjQCTTlEtUm_i1Tv11w- has been confirmed
[eaedea61] (1/1) Accurately ripped
==== Log checksum 2BCD82B893153302F401DC907C6B052591028D0F08E3C99AD8DB88B2768BD3DF ====

Содержание индексной карты (.CUE)

REM GENRE Opera
REM DATE 2000
REM DISCID EB126A11
REM COMMENT "ExactAudioCopy v1.0b3"
PERFORMER "Erkel"
TITLE "Bank ban - Hunyadi Lsszlo (excerpts), Ferencsik-Komor"
FILE "Erkel - Bank ban - Hunyadi Lsszlo (excerpts), Ferencsik-Komor.ape" WAVE
TRACK 01 AUDIO
TITLE "Erkel F. -01- Bánk bán - Elõjáték (vez. Komor Vilmos) - Budapest Filh.Zkr. (1..."
PERFORMER "Erkel"
FLAGS DCP
INDEX 01 00:00:00
TRACK 02 AUDIO
TITLE "Erkel F. -02- Bánk bán - Bordal (Vörösmarty M.) - Fodor János (1956)"
PERFORMER "Erkel"
FLAGS DCP
INDEX 00 02:48:37
INDEX 01 02:52:22
TRACK 03 AUDIO
TITLE "Erkel F. -03- Bánk bán - Mint számûzött..Hazám, hazám... - Joviczky József (1..."
PERFORMER "Erkel"
FLAGS DCP
INDEX 00 05:24:40
INDEX 01 05:28:43
TRACK 04 AUDIO
TITLE "Erkel F. -04- Bánk bán - A békétlenek terveit..Nagyúr, Bánk!... - Joviczky Jó..."
PERFORMER "Erkel"
FLAGS DCP
INDEX 01 08:17:18
TRACK 05 AUDIO
TITLE "Erkel F. -05- Bánk bán - Ölj meg engemet, Bánk... - Osváth Júlia (1956)"
PERFORMER "Erkel"
FLAGS DCP
INDEX 00 18:11:15
INDEX 01 18:15:38
TRACK 06 AUDIO
TITLE "Erkel F. -06- Bánk bán - Hol van fehér... - Osváth Júlia-Joviczky József (1956)"
PERFORMER "Erkel"
FLAGS DCP
INDEX 01 21:50:19
TRACK 07 AUDIO
TITLE "Erkel F. -07- Bánk bán - Bánk bán! Te itt... - Delly Rózsi-Joviczky J.-Külkey..."
PERFORMER "Erkel"
FLAGS DCP
INDEX 00 25:31:43
INDEX 01 25:35:57
TRACK 08 AUDIO
TITLE "Erkel F. -08- Bánk bán -Tisza-parti jelenet - Osaváth Júlia-Radnay Gy. (1956)"
PERFORMER "Erkel"
FLAGS DCP
INDEX 00 37:18:04
INDEX 01 37:22:62
TRACK 09 AUDIO
TITLE "Erkel F. -09- Bánk bán - Oh, jaj nekem! Tiborc... - Joviczky József-Radnay Gy..."
PERFORMER "Erkel"
FLAGS DCP
INDEX 00 39:22:07
INDEX 01 39:26:65
TRACK 10 AUDIO
TITLE "Erkel F. -10- Hunyadi László - Induló - Budapest Filh.Zkr(vez. Komor Vilmos) ..."
PERFORMER "Erkel"
FLAGS DCP
INDEX 00 44:31:15
INDEX 01 44:39:07
TRACK 11 AUDIO
TITLE "Erkel F. -11- Hunyadi László - Ó, végre egy pár nyugodt... - Simándy József (..."
PERFORMER "Erkel"
FLAGS DCP
INDEX 00 46:01:72
INDEX 01 46:05:23
TRACK 12 AUDIO
TITLE "Erkel F. -12- Hunyadi László -12 - Megölve bátyám..Meghalt a cselszövõ... - S..."
PERFORMER "Erkel"
FLAGS DCP
INDEX 00 51:15:14
INDEX 01 51:18:24
TRACK 13 AUDIO
TITLE "Erkel F. -13- Hunyadi László -13 - Mint a tenger, úgy... - Déry Gabriella (1961)"
PERFORMER "Erkel"
FLAGS DCP
INDEX 00 55:12:62
INDEX 01 55:16:27
TRACK 14 AUDIO
TITLE "Erkel F. -14- Hunyadi László -14- Nagy ég..Szép reménysugár... - Déry Gabriel..."
PERFORMER "Erkel"
FLAGS DCP
INDEX 00 62:15:72
INDEX 01 62:20:24
TRACK 15 AUDIO
TITLE "Erkel F. -15- Hunyadi László - Ah..szemembe' mámor, öröm ragyog... - Orosz Jú..."
PERFORMER "Erkel"
FLAGS DCP
INDEX 00 67:58:62
INDEX 01 68:01:66
TRACK 16 AUDIO
TITLE "Erkel F. -16- Hunyadi László - Palotás - Budapest Filh.Zkr. (vez.Komor Vilmos..."
PERFORMER "Erkel"
FLAGS DCP
INDEX 01 71:51:29
TRACK 17 AUDIO
TITLE "Erkel F. -17- Hunyadi László - Áldjon meg Isten... - Orosz Júlia-Simándy Józs..."
PERFORMER "Erkel"
FLAGS DCP
INDEX 00 75:27:38
INDEX 01 75:31:33



Показать сообщения:    

Текущее время: 05-Дек 15:28

Часовой пояс: UTC + 3


Вы не можете начинать темы
Вы не можете отвечать на сообщения
Вы не можете редактировать свои сообщения
Вы не можете удалять свои сообщения
Вы не можете голосовать в опросах
Вы не можете прикреплять файлы к сообщениям
Вы не можете скачивать файлы