(Baroque Oratorio) Handel - Belsazar [Belshazzar] (Schreier, Frank-Reinecke, Trekel-Burkhardt, Polster, Vogt - Berliner Singakademie / Kammerorchester Berlin, Knothe) - 2003, APE (image+.cue) lossless


Статистика раздачи [Обновить пиров]
Размер:  771 MB   |    Зарегистрирован:  8 месяцев 18 дней   |    Скачан:  1 раз

Полного источника не было: 4 месяца 16 дней

 
   
 
 
 

[Цитировать]

George Frideric Handel (1685-1759) - Belsazar
Жанр: Oratorio
Страна-производитель диска: EU
Год издания диска: 2003
Издатель (лейбл): Brilliant Classics
Номер по каталогу: 99777-8/10
Дата записи: 1976
Аудиокодек: APE
Тип рипа: image+.cue
Битрейт аудио: lossless
Продолжительность: 56'30+53'06+54'31
Источник: собственный рип
Наличие сканов в содержимом раздачи: да
Треклист:

CD1

1. Overture
2. Act I: Recitative: Ach, unstet eitles Los
3. Act I: Aria: Du, Gott der Hoh'
4. Act I: Recitative: Das Schicksal Babylons
5. Act I: Aria: Wehklage nicht in eitlem schmerz
6. Act I: Da seht, wie Persiens junger Held
7. Act I: Recitative: Uns gilt ihr Hohn
8. Act I: Aria: Gebeugt von unhelbarem Schmerz
9. Act I: Aria: Still' der eitlen Tranen Flut
10. Act I: Recitative: Ermanne dich
11. Act I: Aria: O schau den Wustling
12. Act I: Recitative: Befremdet's dich denn so
13. Act I: Aria: Du Gott! Der, mir nur fern bekannt
14. Act I: Recitative: Freunde, habt Zuversicht
15. Act I: Die Reiche stehn in Gottes Rat
16. Act I: Aria: O heil' ges Buch

CD2

1. Act I: Aria: Ein freudig Fest
2. Act I: Recitative: Fur euch, o Freunde
3. Act I: Aria: Das falbe Laub
4. Act I: Recitative: Dies ist die Sitte
5. Act I: Verwirf', o Herr
6. Act I: Recitative: Sie reden wahr
7. Act I: Duet: O meines Lebens Lust
8. Act I: Allmahlich steigt Jehovas Zorn
9. Act II: Seht, wie schnell der Euphrat flieht
10. Act II: Recitative: Ihr seht es, Freunde
11. Act II: Aria: Estarrt, so nah den Feind zu seh'n
12. Act II: Voran, voran
13. Act II: Ihr schutzenden Gotter
14. Act II: Aria: Kranzet den Becher rings im Kreis
15. Act II: Helft unserm Herrn
16. Act II: Recitative: Ruft meine Weisen
17. Act II: Symphony
18. Act II: Recitative: Ihr Weisen

CD3

1. Act II: Recitative: O Herr, nicht verzage
2. Act II: Aria and Recitative: Nein! Du behalte deinen Prunk
3. Act II: Recitative: O du allzu strenger Spruch
4. Act II: Aria: O blick' auf deiner Mutter Gram
5. Act II: Aria: O Gott des Heils
6. Act II: Recitative: Du, Gobrias
7. Act II: O tapfrer Furst
8. Act III: Aria: Vorahnend hofft und bangt
9. Act III: Recitative: Gern hofft' ich noch
10. Act III: Aria: Lasst denn der Lowe die Natur
11. Act III: Recitative: Ich hoff' auf's neu
12. Act III: Baal sank dahin
13. Act III: Aria: Ich danke, Sesach
14. Act III: Kriegerische Musik
15. Act III: Aria: Den ew'gen Machten sei der erste Dank
16. Act III: Recitative: Suche nun eilig
17. Act III: Aria: Zerstor'nder Krieg, hier ist dein Ziel
18. Act III: Duet: O Held, gebeugt siehst du mich nah'n
19. Act III: Recitative: Sprich, ehrwurdiger Seher
20. Act III: Kundet uberall den Heiden
21. Act III: Recitative: Ja, ich bau' deine stadt dir
22. Act III: Sei von mir gepriesen
Исполнители:
George Frideric Handel (1685-1759) - Belsazar (Belshazzar)
Oratorio in three acts for soloists, choir and orchestra
Sung in German
Belshazzar – Peter Schreier (tenor)
Nitocris – Renate Frank-Reinecke (soprano)
Cyrus – Ute Trekel-Burkhardt (alto)
Daniel – Gisela Pohl (alto)
Gobrias – Hermann Christian Polster (bass)
Arioch – Joachim Vogt (tenor)
A messenger – Günther Beyer (bass)
Berliner Singakademie
Kammerorchester Berlin
Dietrich Knothe

Лог создания рипа

CD1

Exact Audio Copy V1.0 beta 6 from 9. April 2015
EAC extraction logfile from 1. July 2015, 15:53
Handel / Belsazar CD1
Used drive : TSSTcorpCDDVDW SE-208AB Adapter: 1 ID: 2
Read mode : Secure
Utilize accurate stream : Yes
Defeat audio cache : Yes
Make use of C2 pointers : No
Read offset correction : 6
Overread into Lead-In and Lead-Out : No
Fill up missing offset samples with silence : Yes
Delete leading and trailing silent blocks : No
Null samples used in CRC calculations : Yes
Used interface : Native Win32 interface for Win NT & 2000
Used output format : Monkey's Audio Lossless Encoder
Selected bitrate : High Lossless Compression
Quality : High
Add ID3 tag : Yes
Command line compressor : C:\Program Files (x86)\Exact Audio Copy\MAC\MAC.exe
TOC of the extracted CD
Track | Start | Length | Start sector | End sector
---------------------------------------------------------
1 | 0:00.00 | 6:06.07 | 0 | 27456
2 | 6:06.07 | 4:40.70 | 27457 | 48526
3 | 10:47.02 | 3:38.62 | 48527 | 64938
4 | 14:25.64 | 1:27.43 | 64939 | 71506
5 | 15:53.32 | 4:27.00 | 71507 | 91531
6 | 20:20.32 | 2:34.58 | 91532 | 103139
7 | 22:55.15 | 1:34.52 | 103140 | 110241
8 | 24:29.67 | 3:19.35 | 110242 | 125201
9 | 27:49.27 | 2:26.10 | 125202 | 136161
10 | 30:15.37 | 4:05.43 | 136162 | 154579
11 | 34:21.05 | 3:19.00 | 154580 | 169504
12 | 37:40.05 | 0:17.17 | 169505 | 170796
13 | 37:57.22 | 2:37.45 | 170797 | 182616
14 | 40:34.67 | 0:49.03 | 182617 | 186294
15 | 41:23.70 | 3:06.42 | 186295 | 200286
16 | 44:30.37 | 7:49.08 | 200287 | 235469
17 | 52:19.45 | 4:07.70 | 235470 | 254064
Range status and errors
Selected range
Filename D:\EAC\Handel - Belsazar CD1.wav
Peak level 99.1 %
Extraction speed 4.2 X
Range quality 99.9 %
Test CRC 86813F88
Copy CRC 86813F88
Copy OK
No errors occurred
AccurateRip summary
Track 1 accurately ripped (confidence 10) [0D5FEAF0] (AR v2)
Track 2 accurately ripped (confidence 10) [F6016C2C] (AR v2)
Track 3 accurately ripped (confidence 10) [CB6F7737] (AR v2)
Track 4 accurately ripped (confidence 10) [765D98AB] (AR v2)
Track 5 accurately ripped (confidence 10) [30ED82E9] (AR v2)
Track 6 accurately ripped (confidence 10) [EB8069C4] (AR v2)
Track 7 accurately ripped (confidence 10) [28868A1C] (AR v2)
Track 8 accurately ripped (confidence 10) [42BE6069] (AR v2)
Track 9 accurately ripped (confidence 10) [45AFC01D] (AR v2)
Track 10 accurately ripped (confidence 10) [FA9204BC] (AR v2)
Track 11 accurately ripped (confidence 10) [EB040B92] (AR v2)
Track 12 accurately ripped (confidence 10) [04DB123E] (AR v2)
Track 13 accurately ripped (confidence 10) [5F509790] (AR v2)
Track 14 accurately ripped (confidence 10) [574E7AA5] (AR v2)
Track 15 accurately ripped (confidence 10) [EB93A009] (AR v2)
Track 16 accurately ripped (confidence 10) [DFDFCF09] (AR v2)
Track 17 accurately ripped (confidence 9) [91070E3D] (AR v2)
All tracks accurately ripped
End of status report
---- CUETools DB Plugin V2.1.6
[CTDB TOCID: 1CZct00nQSZupi51NiDVSyxwcQE-] found
Submit result: 1CZct00nQSZupi51NiDVSyxwcQE- has been confirmed
Track | CTDB Status
1 | (10/10) Accurately ripped
2 | (10/10) Accurately ripped
3 | (10/10) Accurately ripped
4 | (10/10) Accurately ripped
5 | (10/10) Accurately ripped
6 | (10/10) Accurately ripped
7 | (10/10) Accurately ripped
8 | (10/10) Accurately ripped
9 | (10/10) Accurately ripped
10 | (10/10) Accurately ripped
11 | (10/10) Accurately ripped
12 | (10/10) Accurately ripped
13 | (10/10) Accurately ripped
14 | (10/10) Accurately ripped
15 | (10/10) Accurately ripped
16 | (10/10) Accurately ripped
17 | (10/10) Accurately ripped
==== Log checksum B79D750F2594F5E830A31F28F6B51778D51579DAA4D6B455D8E535CCABD71C95 ====

CD2

Exact Audio Copy V1.0 beta 6 from 9. April 2015
EAC extraction logfile from 1. July 2015, 15:50
Handel / Belsazar CD2
Used drive : TS8XDVDSTRANSCEND Adapter: 1 ID: 1
Read mode : Secure
Utilize accurate stream : Yes
Defeat audio cache : Yes
Make use of C2 pointers : No
Read offset correction : 6
Overread into Lead-In and Lead-Out : No
Fill up missing offset samples with silence : Yes
Delete leading and trailing silent blocks : No
Null samples used in CRC calculations : Yes
Used interface : Native Win32 interface for Win NT & 2000
Used output format : Monkey's Audio Lossless Encoder
Selected bitrate : High Lossless Compression
Quality : High
Add ID3 tag : Yes
Command line compressor : C:\Program Files (x86)\Exact Audio Copy\MAC\MAC.exe
TOC of the extracted CD
Track | Start | Length | Start sector | End sector
---------------------------------------------------------
1 | 0:00.00 | 4:47.05 | 0 | 21529
2 | 4:47.05 | 0:59.42 | 21530 | 25996
3 | 5:46.47 | 5:04.50 | 25997 | 48846
4 | 10:51.22 | 1:49.40 | 48847 | 57061
5 | 12:40.62 | 3:05.30 | 57062 | 70966
6 | 15:46.17 | 1:31.20 | 70967 | 77811
7 | 17:17.37 | 5:45.03 | 77812 | 103689
8 | 23:02.40 | 4:48.45 | 103690 | 125334
9 | 27:51.10 | 6:28.45 | 125335 | 154479
10 | 34:19.55 | 0:47.62 | 154480 | 158066
11 | 35:07.42 | 4:27.63 | 158067 | 178154
12 | 39:35.30 | 0:31.50 | 178155 | 180529
13 | 40:07.05 | 2:55.67 | 180530 | 193721
14 | 43:02.72 | 3:04.23 | 193722 | 207544
15 | 46:07.20 | 1:57.22 | 207545 | 216341
16 | 48:04.42 | 0:20.23 | 216342 | 217864
17 | 48:24.65 | 1:46.55 | 217865 | 225869
18 | 50:11.45 | 1:11.47 | 225870 | 231241
19 | 51:23.17 | 1:40.50 | 231242 | 238791
Range status and errors
Selected range
Filename D:\EAC\Handel - Belsazar CD2.wav
Peak level 99.1 %
Extraction speed 4.2 X
Range quality 99.9 %
Test CRC 48DF4C7E
Copy CRC 48DF4C7E
Copy OK
No errors occurred
AccurateRip summary
Track 1 accurately ripped (confidence 12) [82BE65D6] (AR v2)
Track 2 accurately ripped (confidence 12) [6DB4EF06] (AR v2)
Track 3 accurately ripped (confidence 12) [B137AC99] (AR v2)
Track 4 accurately ripped (confidence 12) [698EFDEF] (AR v2)
Track 5 accurately ripped (confidence 12) [F3C6DB1F] (AR v2)
Track 6 accurately ripped (confidence 12) [6CA56280] (AR v2)
Track 7 accurately ripped (confidence 12) [4B585118] (AR v2)
Track 8 accurately ripped (confidence 12) [EB56C846] (AR v2)
Track 9 accurately ripped (confidence 12) [4AEFBB67] (AR v2)
Track 10 accurately ripped (confidence 12) [9243B17B] (AR v2)
Track 11 accurately ripped (confidence 12) [94F52C6B] (AR v2)
Track 12 accurately ripped (confidence 12) [0069C2FA] (AR v2)
Track 13 accurately ripped (confidence 12) [5901AAC5] (AR v2)
Track 14 accurately ripped (confidence 12) [5036283E] (AR v2)
Track 15 accurately ripped (confidence 12) [F2A71226] (AR v2)
Track 16 accurately ripped (confidence 12) [117CFFE3] (AR v2)
Track 17 accurately ripped (confidence 12) [4C5A7342] (AR v2)
Track 18 accurately ripped (confidence 12) [F9F6F296] (AR v2)
Track 19 accurately ripped (confidence 11) [1CE26EC6] (AR v2)
All tracks accurately ripped
End of status report
---- CUETools DB Plugin V2.1.6
[CTDB TOCID: aIzLO6pKxmxKfaLg65AE6MuwdBA-] found
Submit result: unrecognized or virtual drive
Track | CTDB Status
1 | (10/10) Accurately ripped
2 | (10/10) Accurately ripped
3 | (10/10) Accurately ripped
4 | (10/10) Accurately ripped
5 | (10/10) Accurately ripped
6 | (10/10) Accurately ripped
7 | (10/10) Accurately ripped
8 | (10/10) Accurately ripped
9 | (10/10) Accurately ripped
10 | (10/10) Accurately ripped
11 | (10/10) Accurately ripped
12 | (10/10) Accurately ripped
13 | (10/10) Accurately ripped
14 | (10/10) Accurately ripped
15 | (10/10) Accurately ripped
16 | (10/10) Accurately ripped
17 | (10/10) Accurately ripped
18 | (10/10) Accurately ripped
19 | (10/10) Accurately ripped
==== Log checksum 4C317A9A187E34674F21F5922F0F60EC971B7122C7B69CCE2532E8E9E78F2613 ====

CD3

Exact Audio Copy V1.0 beta 6 from 9. April 2015
EAC extraction logfile from 1. July 2015, 16:21
Handel / Belsazar CD3
Used drive : TS8XDVDSTRANSCEND Adapter: 1 ID: 1
Read mode : Secure
Utilize accurate stream : Yes
Defeat audio cache : Yes
Make use of C2 pointers : No
Read offset correction : 6
Overread into Lead-In and Lead-Out : No
Fill up missing offset samples with silence : Yes
Delete leading and trailing silent blocks : No
Null samples used in CRC calculations : Yes
Used interface : Native Win32 interface for Win NT & 2000
Used output format : Monkey's Audio Lossless Encoder
Selected bitrate : High Lossless Compression
Quality : High
Add ID3 tag : Yes
Command line compressor : C:\Program Files (x86)\Exact Audio Copy\MAC\MAC.exe
TOC of the extracted CD
Track | Start | Length | Start sector | End sector
---------------------------------------------------------
1 | 0:00.00 | 1:47.40 | 0 | 8064
2 | 1:47.40 | 4:35.47 | 8065 | 28736
3 | 6:23.12 | 0:27.63 | 28737 | 30824
4 | 6:51.00 | 5:22.62 | 30825 | 55036
5 | 12:13.62 | 4:24.33 | 55037 | 74869
6 | 16:38.20 | 1:13.12 | 74870 | 80356
7 | 17:51.32 | 5:17.03 | 80357 | 104134
8 | 23:08.35 | 4:52.02 | 104135 | 126036
9 | 28:00.37 | 0:33.65 | 126037 | 128576
10 | 28:34.27 | 2:13.68 | 128577 | 138619
11 | 30:48.20 | 1:51.22 | 138620 | 146966
12 | 32:39.42 | 1:32.15 | 146967 | 153881
13 | 34:11.57 | 1:40.18 | 153882 | 161399
14 | 35:52.00 | 0:38.10 | 161400 | 164259
15 | 36:30.10 | 2:17.17 | 164260 | 174551
16 | 38:47.27 | 0:22.53 | 174552 | 176254
17 | 39:10.05 | 2:23.67 | 176255 | 187046
18 | 41:33.72 | 3:28.35 | 187047 | 202681
19 | 45:02.32 | 1:00.02 | 202682 | 207183
20 | 46:02.34 | 1:39.53 | 207184 | 214661
21 | 47:42.12 | 1:29.58 | 214662 | 221394
22 | 49:11.70 | 5:17.10 | 221395 | 245179
Range status and errors
Selected range
Filename D:\EAC\Handel - Belsazar CD3.wav
Peak level 99.9 %
Extraction speed 4.2 X
Range quality 99.9 %
Test CRC AD4601DD
Copy CRC AD4601DD
Copy OK
No errors occurred
AccurateRip summary
Track 1 accurately ripped (confidence 9) [71775AE2] (AR v2)
Track 2 accurately ripped (confidence 10) [11814EB1] (AR v2)
Track 3 accurately ripped (confidence 10) [6DA46C40] (AR v2)
Track 4 accurately ripped (confidence 11) [BC502BE7] (AR v2)
Track 5 accurately ripped (confidence 11) [6D4A8621] (AR v2)
Track 6 accurately ripped (confidence 11) [8256CAA3] (AR v2)
Track 7 accurately ripped (confidence 11) [2D49CFBA] (AR v2)
Track 8 accurately ripped (confidence 11) [5681E111] (AR v2)
Track 9 accurately ripped (confidence 11) [DB030E17] (AR v2)
Track 10 accurately ripped (confidence 11) [695BDDF3] (AR v2)
Track 11 accurately ripped (confidence 11) [4DCC4310] (AR v2)
Track 12 accurately ripped (confidence 11) [63BD0228] (AR v2)
Track 13 accurately ripped (confidence 11) [D0AE7EED] (AR v2)
Track 14 accurately ripped (confidence 11) [EB18E950] (AR v2)
Track 15 accurately ripped (confidence 11) [12950D32] (AR v2)
Track 16 accurately ripped (confidence 11) [D0042A7F] (AR v2)
Track 17 accurately ripped (confidence 11) [B2AB31C3] (AR v2)
Track 18 accurately ripped (confidence 11) [C6C4BCA6] (AR v2)
Track 19 accurately ripped (confidence 11) [C0FE1EBD] (AR v2)
Track 20 accurately ripped (confidence 11) [582C40A0] (AR v2)
Track 21 accurately ripped (confidence 11) [CD36A5E1] (AR v2)
Track 22 accurately ripped (confidence 11) [765A47EC] (AR v2)
All tracks accurately ripped
End of status report
---- CUETools DB Plugin V2.1.6
[CTDB TOCID: ZmpyO0eIrr5.LDFsOZjq5vN5tXY-] found
Submit result: unrecognized or virtual drive
Track | CTDB Status
1 | (9/9) Accurately ripped
2 | (9/9) Accurately ripped
3 | (9/9) Accurately ripped
4 | (9/9) Accurately ripped
5 | (9/9) Accurately ripped
6 | (9/9) Accurately ripped
7 | (9/9) Accurately ripped
8 | (9/9) Accurately ripped
9 | (9/9) Accurately ripped
10 | (9/9) Accurately ripped
11 | (9/9) Accurately ripped
12 | (9/9) Accurately ripped
13 | (9/9) Accurately ripped
14 | (9/9) Accurately ripped
15 | (9/9) Accurately ripped
16 | (9/9) Accurately ripped
17 | (9/9) Accurately ripped
18 | (9/9) Accurately ripped
19 | (9/9) Accurately ripped
20 | (9/9) Accurately ripped
21 | (9/9) Accurately ripped
22 | (9/9) Accurately ripped
==== Log checksum 429C868B55FEBC7C0955895CEE45E3FC5E7B89D0DCAE40A19E87CB520FAEE2CD ====

Содержание индексной карты (.CUE)

CD1

REM GENRE Oratorio
REM DATE 1976
REM DISCID FB0D3B11
REM COMMENT "ExactAudioCopy v1.0b6"
PERFORMER "Handel"
TITLE "Belsazar CD1"
FILE "Handel - Belsazar CD1.ape" WAVE
TRACK 01 AUDIO
TITLE "HWV 61 - 01. Ouverture"
PERFORMER "Schreier, Trekel-Burckhardt -Singakademie Berlin_ Berlin Chamber Orchestra, K..."
INDEX 01 00:00:00
TRACK 02 AUDIO
TITLE "HWV 61 - 02. Act1/Sc1: Recitativo Nitocris: Unstet eitles Los"
PERFORMER "Schreier, Trekel-Burckhardt -Singakademie Berlin_ Berlin Chamber Orchestra, K..."
INDEX 01 06:06:07
TRACK 03 AUDIO
TITLE "HWV 61 - 03. Act1/Sc1: Aria Nitocris: Du, Gott der Hoh'"
PERFORMER "Schreier, Trekel-Burckhardt -Singakademie Berlin_ Berlin Chamber Orchestra, K..."
INDEX 01 10:47:02
TRACK 04 AUDIO
TITLE "HWV 61 - 04. Act1/Sc1: Recitativo Nitocris, Daniel: Das Schicksal Babylons"
PERFORMER "Schreier, Trekel-Burckhardt -Singakademie Berlin_ Berlin Chamber Orchestra, K..."
INDEX 01 14:25:64
TRACK 05 AUDIO
TITLE "HWV 61 - 05. Act1/Sc1: Aria Daniel: Wehklage nicht im eitlem Schmerz"
PERFORMER "Schreier, Trekel-Burckhardt -Singakademie Berlin_ Berlin Chamber Orchestra, K..."
INDEX 01 15:53:32
TRACK 06 AUDIO
TITLE "HWV 61 - 06. Act1/Sc2: Coro: Da seht, wie Persiens junger Held"
PERFORMER "Schreier, Trekel-Burckhardt -Singakademie Berlin_ Berlin Chamber Orchestra, K..."
INDEX 01 20:20:32
TRACK 07 AUDIO
TITLE "HWV 61 - 07. Act1/Sc2: Recitativo Gobrias, Cyrus: Uns gilt ihr Hohn"
PERFORMER "Schreier, Trekel-Burckhardt -Singakademie Berlin_ Berlin Chamber Orchestra, K..."
INDEX 01 22:55:15
TRACK 08 AUDIO
TITLE "HWV 61 - 09. Act1/Sc2: Aria Gobrias: Gebeugt von unheilbarem Schmerz"
PERFORMER "Schreier, Trekel-Burckhardt -Singakademie Berlin_ Berlin Chamber Orchestra, K..."
INDEX 01 24:29:67
TRACK 09 AUDIO
TITLE "HWV 61 - 10. Act1/Sc2: Aria Cyrus: Still' der eitlen Tranen Flut"
PERFORMER "Schreier, Trekel-Burckhardt -Singakademie Berlin_ Berlin Chamber Orchestra, K..."
INDEX 01 27:49:27
TRACK 10 AUDIO
TITLE "HWV 61 - 12. Act1/Sc2: Recitativo Cyrus, Gobrias: Ermanne dich"
PERFORMER "Schreier, Trekel-Burckhardt -Singakademie Berlin_ Berlin Chamber Orchestra, K..."
INDEX 01 30:15:37
TRACK 11 AUDIO
TITLE "HWV 61 - 14. Act1/Sc2: Aria Gobrias: O schau den Wustling"
PERFORMER "Schreier, Trekel-Burckhardt -Singakademie Berlin_ Berlin Chamber Orchestra, K..."
INDEX 01 34:21:05
TRACK 12 AUDIO
TITLE "HWV 61 - 15. Act1/Sc2: Recittivo Cyrus: Befremdet's dich denn so"
PERFORMER "Schreier, Trekel-Burckhardt -Singakademie Berlin_ Berlin Chamber Orchestra, K..."
INDEX 01 37:40:05
TRACK 13 AUDIO
TITLE "HWV 61 - 16. Act1/Sc2: Aria Cyrus: Dus Gott! Der, mir nur fern bekannt"
PERFORMER "Schreier, Trekel-Burckhardt -Singakademie Berlin_ Berlin Chamber Orchestra, K..."
INDEX 01 37:57:22
TRACK 14 AUDIO
TITLE "HWV 61 - 17. Act1/Sc2: Recitativo Cyrus: Freunde, habt Zuversicht"
PERFORMER "Schreier, Trekel-Burckhardt -Singakademie Berlin_ Berlin Chamber Orchestra, K..."
INDEX 01 40:34:67
TRACK 15 AUDIO
TITLE "HWV 61 - 18. Act1/Sc2: Choir: Die Reiche stehn in Gottes Rat"
PERFORMER "Schreier, Trekel-Burckhardt -Singakademie Berlin_ Berlin Chamber Orchestra, K..."
INDEX 01 41:23:70
TRACK 16 AUDIO
TITLE "HWV 61 - 19. Act1/Sc3: Aria Daniel: O Heil'ges Buch"
PERFORMER "Schreier, Trekel-Burckhardt -Singakademie Berlin_ Berlin Chamber Orchestra, K..."
INDEX 01 44:30:37
TRACK 17 AUDIO
TITLE "HWV 61 - 22. Act1/Sc3: Choir: Singt, Himmel singt"
PERFORMER "Schreier, Trekel-Burckhardt -Singakademie Berlin_ Berlin Chamber Orchestra, K..."
INDEX 01 52:19:45

CD2

REM GENRE Oratorio
REM DATE 1976
REM DISCID 270C6F13
REM COMMENT "ExactAudioCopy v1.0b6"
PERFORMER "Handel"
TITLE "Belsazar CD2"
FILE "Handel - Belsazar CD2.ape" WAVE
TRACK 01 AUDIO
TITLE "HWV 61 - 23. Act1/Sc4: Aria Belsazar: Ein Freudig Fest"
PERFORMER "Schreier, Trekel-Burckhardt -Singakademie Berlin_ Berlin Chamber Orchestra, K..."
INDEX 01 00:00:00
TRACK 02 AUDIO
TITLE "HWV 61 - 24. Act1/Sc4: Recitative Belsazar, Nitocris: Für Euc, O Freunde"
PERFORMER "Schreier, Trekel-Burckhardt -Singakademie Berlin_ Berlin Chamber Orchestra, K..."
INDEX 01 04:47:05
TRACK 03 AUDIO
TITLE "HWV 61 - 25. Act1/Sc4: Aria Nitocriz: Das Falbe Laub"
PERFORMER "Schreier, Trekel-Burckhardt -Singakademie Berlin_ Berlin Chamber Orchestra, K..."
INDEX 01 05:46:47
TRACK 04 AUDIO
TITLE "HWV 61 - 26. Act1/Sc4: Recitative Belsazar: Dies Ist Die Sitte"
PERFORMER "Schreier, Trekel-Burckhardt -Singakademie Berlin_ Berlin Chamber Orchestra, K..."
INDEX 01 10:51:22
TRACK 05 AUDIO
TITLE "HWV 61 - 27. Act1/Sc4: Chor der Juden: Verwirf', O Herr"
PERFORMER "Schreier, Trekel-Burckhardt -Singakademie Berlin_ Berlin Chamber Orchestra, K..."
INDEX 01 12:40:62
TRACK 06 AUDIO
TITLE "HWV 61 - 28. Act1/Sc4: Recitative Nitocris, Belsazar: Sie Reden Wahr"
PERFORMER "Schreier, Trekel-Burckhardt -Singakademie Berlin_ Berlin Chamber Orchestra, K..."
INDEX 01 15:46:17
TRACK 07 AUDIO
TITLE "HWV 61 - 29. Act1/Sc4: Duett Nitocris, Belsazar: O Meines Lebens Lust"
PERFORMER "Schreier, Trekel-Burckhardt -Singakademie Berlin_ Berlin Chamber Orchestra, K..."
INDEX 01 17:17:37
TRACK 08 AUDIO
TITLE "HWV 61 - 30. Act1/Sc4: Chor der Juden: Allmählich Steigt Jehovas Zorn"
PERFORMER "Schreier, Trekel-Burckhardt -Singakademie Berlin_ Berlin Chamber Orchestra, K..."
INDEX 01 23:02:40
TRACK 09 AUDIO
TITLE "HWV 61 - 31. Act2/Sc1: Chor: Seht, Wie Schnell Der Euphrat Fliesst"
PERFORMER "Schreier, Trekel-Burckhardt -Singakademie Berlin_ Berlin Chamber Orchestra, K..."
INDEX 00 27:46:72
INDEX 01 27:51:10
TRACK 10 AUDIO
TITLE "HWV 61 - 32. Act2/Sc1: Recitative Cyrus: Ihr Seht Es, Freunde"
PERFORMER "Schreier, Trekel-Burckhardt -Singakademie Berlin_ Berlin Chamber Orchestra, K..."
INDEX 01 34:19:55
TRACK 11 AUDIO
TITLE "HWV 61 - 33. Act2/Sc1: Aria Cyrus: Erstarrt, So Hah Den Feind Zu Seh'n"
PERFORMER "Schreier, Trekel-Burckhardt -Singakademie Berlin_ Berlin Chamber Orchestra, K..."
INDEX 01 35:07:42
TRACK 12 AUDIO
TITLE "HWV 61 - 34. Act2/Sc1: Chor der Perser und Meden: Voran, Voran"
PERFORMER "Schreier, Trekel-Burckhardt -Singakademie Berlin_ Berlin Chamber Orchestra, K..."
INDEX 01 39:35:30
TRACK 13 AUDIO
TITLE "HWV 61 - 35. Act2/Sc2: Chor der Babylonier: Ihr Schützenden Götter"
PERFORMER "Schreier, Trekel-Burckhardt -Singakademie Berlin_ Berlin Chamber Orchestra, K..."
INDEX 01 40:07:05
TRACK 14 AUDIO
TITLE "HWV 61 - 36. Act2/Sc2: Aria Belsazar: Kränzet Den Becher Rings Im Kreis"
PERFORMER "Schreier, Trekel-Burckhardt -Singakademie Berlin_ Berlin Chamber Orchestra, K..."
INDEX 01 43:02:72
TRACK 15 AUDIO
TITLE "HWV 61 - 37. Act2/Sc2: Chor der Babylonier: Helft Unserm Herrn"
PERFORMER "Schreier, Trekel-Burckhardt -Singakademie Berlin_ Berlin Chamber Orchestra, K..."
INDEX 01 46:07:20
TRACK 16 AUDIO
TITLE "HWV 61 - 38. Act2/Sc2: Recitative Belsazar: Ruft Meine Weisen"
PERFORMER "Schreier, Trekel-Burckhardt -Singakademie Berlin_ Berlin Chamber Orchestra, K..."
INDEX 01 48:04:42
TRACK 17 AUDIO
TITLE "HWV 61 - 39. Act2/Sc2: Sinfonia"
PERFORMER "Schreier, Trekel-Burckhardt -Singakademie Berlin_ Berlin Chamber Orchestra, K..."
INDEX 01 48:24:65
TRACK 18 AUDIO
TITLE "HWV 61 - 40. Act2/Sc2: Recitative & Choir: Ihr Weisen"
PERFORMER "Schreier, Trekel-Burckhardt -Singakademie Berlin_ Berlin Chamber Orchestra, K..."
INDEX 01 50:11:45
TRACK 19 AUDIO
TITLE "HWV 61 - 41. Act2/Sc2: O Missgeschick"
PERFORMER "Schreier, Trekel-Burckhardt -Singakademie Berlin_ Berlin Chamber Orchestra, K..."
INDEX 01 51:23:17

CD3

REM GENRE Oratorio
REM DATE 1976
REM DISCID 270CC516
REM COMMENT "ExactAudioCopy v1.0b6"
PERFORMER "Handel"
TITLE "Belsazar CD3"
FILE "Handel - Belsazar CD3.ape" WAVE
TRACK 01 AUDIO
TITLE "Act III; Recitativo Nitocris: O Herr, nicht verzage"
PERFORMER "Schreier, Trekel-Burckhardt -Singakademie Berlin_ Berlin Chamber Orchestra, K..."
INDEX 01 00:00:00
TRACK 02 AUDIO
TITLE "Act III; Aria & recitativo Daniel: Nein! Du behalte deinen Prunk"
PERFORMER "Schreier, Trekel-Burckhardt -Singakademie Berlin_ Berlin Chamber Orchestra, K..."
INDEX 01 01:47:40
TRACK 03 AUDIO
TITLE "Act III; Recitativo Nitocris: O du allzu strenger Spruch"
PERFORMER "Schreier, Trekel-Burckhardt -Singakademie Berlin_ Berlin Chamber Orchestra, K..."
INDEX 01 06:23:12
TRACK 04 AUDIO
TITLE "Act III; Aria Nitocris: O blick' auf deiner Mutter Gram"
PERFORMER "Schreier, Trekel-Burckhardt -Singakademie Berlin_ Berlin Chamber Orchestra, K..."
INDEX 01 06:51:00
TRACK 05 AUDIO
TITLE "Act III; Aria Cyrus: O Gott des Heils"
PERFORMER "Schreier, Trekel-Burckhardt -Singakademie Berlin_ Berlin Chamber Orchestra, K..."
INDEX 01 12:13:62
TRACK 06 AUDIO
TITLE "Act III; Recitativi Cyrus: Du Gobrias"
PERFORMER "Schreier, Trekel-Burckhardt -Singakademie Berlin_ Berlin Chamber Orchestra, K..."
INDEX 01 16:38:20
TRACK 07 AUDIO
TITLE "Act III; Choir: O tapfrer Fürst"
PERFORMER "Schreier, Trekel-Burckhardt -Singakademie Berlin_ Berlin Chamber Orchestra, K..."
INDEX 01 17:51:32
TRACK 08 AUDIO
TITLE "Act III; Aria Nitocris: Vorahnend hofft und bangt"
PERFORMER "Schreier, Trekel-Burckhardt -Singakademie Berlin_ Berlin Chamber Orchestra, K..."
INDEX 00 23:04:17
INDEX 01 23:08:35
TRACK 09 AUDIO
TITLE "Act III; Recitativo Nitocris, Daniel: Gern hofft'ich noch"
PERFORMER "Schreier, Trekel-Burckhardt -Singakademie Berlin_ Berlin Chamber Orchestra, K..."
INDEX 01 28:00:37
TRACK 10 AUDIO
TITLE "Act III; Aria Daniel: Lässt denn der Löwe die Natur"
PERFORMER "Schreier, Trekel-Burckhardt -Singakademie Berlin_ Berlin Chamber Orchestra, K..."
INDEX 01 28:34:27
TRACK 11 AUDIO
TITLE "Act III; Recitativo Nitocris, Arioch, messenger: Ich hoff' auf's neu"
PERFORMER "Schreier, Trekel-Burckhardt -Singakademie Berlin_ Berlin Chamber Orchestra, K..."
INDEX 01 30:48:20
TRACK 12 AUDIO
TITLE "Act III; Choir of the Jews: Baal sank dahin"
PERFORMER "Schreier, Trekel-Burckhardt -Singakademie Berlin_ Berlin Chamber Orchestra, K..."
INDEX 01 32:39:42
TRACK 13 AUDIO
TITLE "Act III; Aria Belsazar: Ich danke, Sesach"
PERFORMER "Schreier, Trekel-Burckhardt -Singakademie Berlin_ Berlin Chamber Orchestra, K..."
INDEX 01 34:11:57
TRACK 14 AUDIO
TITLE "Act III; War's music"
PERFORMER "Schreier, Trekel-Burckhardt -Singakademie Berlin_ Berlin Chamber Orchestra, K..."
INDEX 01 35:52:00
TRACK 15 AUDIO
TITLE "Act III; Aria Gobrias: Den ew'gen Mächten sei der erste Dank"
PERFORMER "Schreier, Trekel-Burckhardt -Singakademie Berlin_ Berlin Chamber Orchestra, K..."
INDEX 01 36:30:10
TRACK 16 AUDIO
TITLE "Act III; Recitativo Cyrus: Suche nun eilig"
PERFORMER "Schreier, Trekel-Burckhardt -Singakademie Berlin_ Berlin Chamber Orchestra, K..."
INDEX 01 38:47:27
TRACK 17 AUDIO
TITLE "Act III; Aria Cyrus: Zerstör'nder Krieg, hier ist dein Ziel"
PERFORMER "Schreier, Trekel-Burckhardt -Singakademie Berlin_ Berlin Chamber Orchestra, K..."
INDEX 01 39:10:05
TRACK 18 AUDIO
TITLE "Act III; Duet Nitocris, Cyrus: O held, gebeugt sieht du mich nah'n"
PERFORMER "Schreier, Trekel-Burckhardt -Singakademie Berlin_ Berlin Chamber Orchestra, K..."
INDEX 01 41:33:72
TRACK 19 AUDIO
TITLE "Act III; Recitativo Cyrus, Daniel: Sprich, erhrwürdiger Seher"
PERFORMER "Schreier, Trekel-Burckhardt -Singakademie Berlin_ Berlin Chamber Orchestra, K..."
INDEX 01 45:02:32
TRACK 20 AUDIO
TITLE "Act III; Soloists & Choir: Kündet überall den Heiden"
PERFORMER "Schreier, Trekel-Burckhardt -Singakademie Berlin_ Berlin Chamber Orchestra, K..."
INDEX 01 46:02:34
TRACK 21 AUDIO
TITLE "Act III; Recitativo Cyrus: Ja, ich bau'deine Stadt dir"
PERFORMER "Schreier, Trekel-Burckhardt -Singakademie Berlin_ Berlin Chamber Orchestra, K..."
INDEX 01 47:42:12
TRACK 22 AUDIO
TITLE "Act III; Soloists & choir: Sei von mir gepriesen"
PERFORMER "Schreier, Trekel-Burckhardt -Singakademie Berlin_ Berlin Chamber Orchestra, K..."
INDEX 01 49:11:70
Доп. информация:
‘Belshazzar’ was to be the last oratorio that Handel wrote with Charles Jennens, the librettist of ‘Messiah’.
The tautness of ‘Belshazzar’ probably owes something to the fact that Handel had to cut the work whilst writing it.
His first draft of Act I would have led to a mammoth work and his extensive but subtle cuts have probably been beneficial to the work.
Despite the name oratorio, ‘Belshazzar’ is a fully fledged dramatic work like ‘Hercules’ and ‘Semele’.
From the opening notes of the overture, it is clear that this is going to be big-band Handel.
The performance from the Kammerorchester Berlin, is big boned but not without a sense of crispness and style and the resulting sound is more than adequate.
The string tone is rich, but not overly laden with vibrato and they play in a fine sprung and shapely manner.
As Nitocris, Renate Frank-Reinecke, is a fine stylist and her opening scene is most moving.
She has the sort of laser-sharp delivery that puts me in mind of the younger Felicity Palmer.
As Daniel, Gisela Pohl sings with firmness and a lack of too feminine a tone that is entirely admirable.
Gobrias, the Babylonian turncoat mourning the loss of his son to Belshazzar’s excesses, is sung by Hermann Christian Poster.
He is a bass who brings to the role a truly admirable firmness and lack of bluster, his solos are a joy to listen to.
The choir, the Berliner Singakademie, sound bigger than we are used to now, but they sing with a good focused sound and a neat sense of line.
The Kammerorchester Berlin under Dietrich Knothe give a well sprung performance and whilst speeds are sometimes on the leisurely side, the orchestra never sounds lacklustre or sluggish.
[teatrix.ru].t21762.torrent 
Торрент: Зарегистрирован [ 2016-03-20 12:54 ] · 68F2EC69BDA916ECF194C862FB4F2C78006BBCB1

Скачать .torrent

Скачать

16 KB

Статус: проверено
Скачан: 1 раз
Размер: 771 MB
terms.php



Быстрый ответ

Имя:

      
Для отправки сообщений необходимо включить JavaScript
Показать сообщения:    

Текущее время: 07-Дек 15:34

Часовой пояс: UTC + 3


Вы можете начинать темы
Вы можете отвечать на сообщения
Вы не можете редактировать свои сообщения
Вы не можете удалять свои сообщения
Вы не можете голосовать в опросах
Вы не можете прикреплять файлы к сообщениям
Вы можете скачивать файлы