Куллоден / Culloden (Питер Уоткинс / Peter Watkins) [1964, Великобритания, драма, исторический, военный, DVDRip] AVO (Рябов) + Sub Rus, Eng + Original Eng


Статистика раздачи [Обновить пиров]
Размер:  1.37 GB   |    Зарегистрирован:  9 месяцев 30 дней   |    Скачан:  2 раза

Полного источника не было: 2 месяца 19 дней

 
   
 
 
 

[Цитировать]

Куллоден / Culloden
Страна: Великобритания
Жанр: драма, исторический, военный
Год выпуска: 1964
Продолжительность: 01:12:31
Перевод: Авторский (одноголосый закадровый) - Сергей Рябов
Cубтитры: русские (idqtuvvx), английские
Оригинальная аудиодорожка: английский

Режиссер: Питер Уоткинс / Peter Watkins
В ролях: Тони Косгров, Оливье Эспиталье-Ноэль, Дон Фэйрсервис, Джордж МакБин, Роберт Оутс, Патрик Уоткинс, Питер Уоткинс
Описание: 16 апреля 1746 года в окрестностях Куллодена произошло сражение между шотландским ополчением, под предводительством Чарльза Эдварда Стюарта, претендента на английский престол, и английскими войсками, под начальством герцога Камберленда, в результате которого горцы были разбиты, по большей части из-за бездарного руководства армией, а Чарльз был вынужден бежать. Это сражение стало последним на британской земле. Фильм снят как документальный репортаж, рассказывающий о сражении и последующих событиях.
Качество видео: DVDRip
Формат видео: AVI
Видео: 624x480 (1.30:1), 23.976 fps, XviD build 73 ~2302 kbps avg, 0.32 bit/pixel
Аудио: 48 kHz, AC3 Dolby Digital, 1/0 (C) ch, ~192 kbps - Рябов
Аудио: 48 kHz, AC3 Dolby Digital, 2/0 (L,R) ch, ~192 kbps - оригинал

Сравнение

http://teatrix.ru/viewtopic.php?t=1705897
http://screenshotcomparison.com/comparison/135307/picture:1
в оригинальном разрешении. В старом рипе аспект нарушен серьёзно

MediaInfo

Общее
Полное имя : H:\Culloden.1964.dvdrip_[1.37]_[teko]\Culloden.1964.dvdrip_[1.37].avi
Формат : AVI
Формат/Информация : Audio Video Interleave
Размер файла : 1,37 Гбайт
Продолжительность : 1 ч. 12 м.
Общий поток : 2702 Кбит/сек
Программа кодирования : VirtualDubMod 1.5.10.3 | www.virtualdub-fr.org || (build 2550/release)
Библиотека кодирования : VirtualDubMod build 2550/release
Видео
Идентификатор : 0
Формат : MPEG-4 Visual
Профиль формата : Advanced Simple@L5
Параметр BVOP формата : 1
Параметр QPel формата : Нет
Параметр GMC формата : Без точки перехода
Параметр матрицы формата : Выборочная
Идентификатор кодека : XVID
Идентификатор кодека/Подсказка : XviD
Продолжительность : 1 ч. 12 м.
Битрейт : 2303 Кбит/сек
Ширина : 624 пикселя
Высота : 480 пикселей
Соотношение сторон : 4:3
Частота кадров : 23,976 кадра/сек
Цветовое пространство : YUV
Субдискретизация насыщенности : 4:2:0
Битовая глубина : 8 бит
Тип развёртки : Прогрессивная
Метод сжатия : С потерями
Бит/(Пиксели*Кадры) : 0.321
Размер потока : 1,17 Гбайт (85%)
Библиотека кодирования : XviD 73
Аудио #1
Идентификатор : 1
Формат : AC-3
Формат/Информация : Audio Coding 3
Расширение режима : CM (complete main)
Параметр Endianness формата : Big
Идентификатор кодека : 2000
Продолжительность : 1 ч. 12 м.
Вид битрейта : Постоянный
Битрейт : 192 Кбит/сек
Каналы : 1 канал
Расположение каналов : Front: C
Частота : 48,0 КГц
Битовая глубина : 16 бит
Метод сжатия : С потерями
Размер потока : 99,6 Мбайт (7%)
Выравнивание : Разделение по промежуткам
Продолжительность промежутка : 42 мс. (1,00 видеокадр)
Время предзагрузки промежутка : 500 мс.
Аудио #2
Идентификатор : 2
Формат : AC-3
Формат/Информация : Audio Coding 3
Расширение режима : CM (complete main)
Параметр Endianness формата : Big
Идентификатор кодека : 2000
Продолжительность : 1 ч. 12 м.
Вид битрейта : Постоянный
Битрейт : 192 Кбит/сек
Каналы : 2 канала
Расположение каналов : Front: L R
Частота : 48,0 КГц
Битовая глубина : 16 бит
Метод сжатия : С потерями
Размер потока : 99,6 Мбайт (7%)
Выравнивание : Разделение по промежуткам
Продолжительность промежутка : 42 мс. (1,00 видеокадр)
Время предзагрузки промежутка : 500 мс.

Скриншоты

[teatrix.ru].t21763.torrent 
Торрент: Зарегистрирован [ 2016-03-20 12:54 ] · 0FB79B245DCD5A4B2E13B30D07957EA08AF7AE0C

Скачать .torrent

Скачать

14 KB

Статус: проверено
Скачан: 2 раз
Размер: 1.37 GB
terms.php



Быстрый ответ

Имя:

      
Для отправки сообщений необходимо включить JavaScript
Показать сообщения:    

Текущее время: 19-Янв 16:04

Часовой пояс: UTC + 3


Вы можете начинать темы
Вы можете отвечать на сообщения
Вы не можете редактировать свои сообщения
Вы не можете удалять свои сообщения
Вы не можете голосовать в опросах
Вы не можете прикреплять файлы к сообщениям
Вы можете скачивать файлы