(Classical) Salvatore Sciarrino · String Quartets: Quartetto N. 7, Quartetto N. 8, Sei quartetti brevi (Quartetto Prometeo) · 2012, FLAC (tracks+.cue) lossless


 

[Цитировать]

Salvatore Sciarrino
Quartetto N. 7
Quartetto N. 8
Sei quartetti brevi
Жанр: classical
Страна-производитель диска: Germany
Год издания диска: 2012
Издатель: Kairos
Номер по каталогу: KAI 0013212
Дата записи: 11–13 февраля 2010
Аудиокодек: FLAC
Тип рипа: tracks+.cue
Битрейт аудио: lossless
Продолжительность: 00:46:29
Источник: скачано с what.cd
Сканы в содержимом раздачи есть
Исполнители: Quartetto Prometeo
Треклист:
01. Quartetto N. 7 (1999) (9:43)
02. Quartetto N. 8 (2008) (18:28)
Sei quartetti brevi (1967–1992)
03. I (4:10)
04. II (1:25)
05. III (3:55)
06. IV (2:25)
07. V (3:05)
08. VI (3:17)

Лог создания рипа

X Lossless Decoder version 20131102 (145.0)
XLD extraction logfile from 2013-11-14 17:51:59 +0100
Quartetto Prometeo / Salvatore Sciarrino - Quartetto N.7 • Quartetto N.8 • Sei quartetti brevi - Quartetto Prometeo [Kairos]
Used drive : TSSTcorp CDDVDW SE-S084D (revision TS01)
Media type : Pressed CD
Ripper mode : XLD Secure Ripper
Disable audio cache : OK for the drive with a cache less than 1375KiB
Make use of C2 pointers : NO
Read offset correction : 6
Max retry count : 100
Gap status : Analyzed, Appended (except HTOA)
TOC of the extracted CD
Track | Start | Length | Start sector | End sector
---------------------------------------------------------
1 | 00:00:00 | 09:42:72 | 0 | 43721
2 | 09:42:72 | 18:27:66 | 43722 | 126812
3 | 28:10:63 | 04:10:18 | 126813 | 145580
4 | 32:21:06 | 01:25:25 | 145581 | 151980
5 | 33:46:31 | 03:55:29 | 151981 | 169634
6 | 37:41:60 | 02:25:32 | 169635 | 180541
7 | 40:07:17 | 03:04:47 | 180542 | 194388
8 | 43:11:64 | 03:16:72 | 194389 | 209160
AccurateRip Summary
Disc not found in AccurateRip DB.
All Tracks
Album gain : 3.21 dB
Peak : 0.991791
Statistics
Read error : 0
Jitter error (maybe fixed) : 0
Retry sector count : 0
Damaged sector count : 0
Track 01
Filename : /Volumes/HGST Touro Desk 4TB 1/CD rips/Salvatore Sciarrino - Quartetto N.7 • Quartetto N.8 • Sei quartetti brevi - Quartetto Prometeo [Kairos]/01 Quartetto N.7 [1999].flac
Pre-gap length : 00:02:00
Track gain : 3.49 dB
Peak : 0.953217
CRC32 hash (test run) : 65A31E27
CRC32 hash : 65A31E27
CRC32 hash (skip zero) : EF8E522C
AccurateRip v1 signature : 46816D78
AccurateRip v2 signature : F83AD09A
->Track not present in AccurateRip database.
Statistics
Read error : 0
Jitter error (maybe fixed) : 0
Retry sector count : 0
Damaged sector count : 0
Track 02
Filename : /Volumes/HGST Touro Desk 4TB 1/CD rips/Salvatore Sciarrino - Quartetto N.7 • Quartetto N.8 • Sei quartetti brevi - Quartetto Prometeo [Kairos]/02 Quartetto N.8 [2008].flac
Pre-gap length : 00:04:56
Track gain : 2.78 dB
Peak : 0.944366
CRC32 hash (test run) : C7DEF4EE
CRC32 hash : C7DEF4EE
CRC32 hash (skip zero) : 1598D0BE
AccurateRip v1 signature : 65B976B0
AccurateRip v2 signature : F60841B3
->Track not present in AccurateRip database.
Statistics
Read error : 0
Jitter error (maybe fixed) : 0
Retry sector count : 0
Damaged sector count : 0
Track 03
Filename : /Volumes/HGST Touro Desk 4TB 1/CD rips/Salvatore Sciarrino - Quartetto N.7 • Quartetto N.8 • Sei quartetti brevi - Quartetto Prometeo [Kairos]/03 Sei quartetti brevi [1967-1992]: I.flac
Pre-gap length : 00:06:20
Track gain : -0.76 dB
Peak : 0.991791
CRC32 hash (test run) : 6A814282
CRC32 hash : 6A814282
CRC32 hash (skip zero) : 336D443C
AccurateRip v1 signature : 9A92026B
AccurateRip v2 signature : 3D29EF63
->Track not present in AccurateRip database.
Statistics
Read error : 0
Jitter error (maybe fixed) : 0
Retry sector count : 0
Damaged sector count : 0
Track 04
Filename : /Volumes/HGST Touro Desk 4TB 1/CD rips/Salvatore Sciarrino - Quartetto N.7 • Quartetto N.8 • Sei quartetti brevi - Quartetto Prometeo [Kairos]/04 Sei quartetti brevi [1967-1992]: II.flac
Track gain : 13.51 dB
Peak : 0.460876
CRC32 hash (test run) : 40885F4E
CRC32 hash : 40885F4E
CRC32 hash (skip zero) : E8785E0F
AccurateRip v1 signature : 8AEF7576
AccurateRip v2 signature : B759F3D8
->Track not present in AccurateRip database.
Statistics
Read error : 0
Jitter error (maybe fixed) : 0
Retry sector count : 0
Damaged sector count : 0
Track 05
Filename : /Volumes/HGST Touro Desk 4TB 1/CD rips/Salvatore Sciarrino - Quartetto N.7 • Quartetto N.8 • Sei quartetti brevi - Quartetto Prometeo [Kairos]/05 Sei quartetti brevi [1967-1992]: III.flac
Track gain : 2.03 dB
Peak : 0.917297
CRC32 hash (test run) : BA10E039
CRC32 hash : BA10E039
CRC32 hash (skip zero) : 0574823F
AccurateRip v1 signature : 6A090957
AccurateRip v2 signature : 1B0E09B9
->Track not present in AccurateRip database.
Statistics
Read error : 0
Jitter error (maybe fixed) : 0
Retry sector count : 0
Damaged sector count : 0
Track 06
Filename : /Volumes/HGST Touro Desk 4TB 1/CD rips/Salvatore Sciarrino - Quartetto N.7 • Quartetto N.8 • Sei quartetti brevi - Quartetto Prometeo [Kairos]/06 Sei quartetti brevi [1967-1992]: IV.flac
Track gain : 13.93 dB
Peak : 0.321442
CRC32 hash (test run) : 4700AC18
CRC32 hash : 4700AC18
CRC32 hash (skip zero) : B0415085
AccurateRip v1 signature : E8E87F7B
AccurateRip v2 signature : 186C4ED1
->Track not present in AccurateRip database.
Statistics
Read error : 0
Jitter error (maybe fixed) : 0
Retry sector count : 0
Damaged sector count : 0
Track 07
Filename : /Volumes/HGST Touro Desk 4TB 1/CD rips/Salvatore Sciarrino - Quartetto N.7 • Quartetto N.8 • Sei quartetti brevi - Quartetto Prometeo [Kairos]/07 Sei quartetti brevi [1967-1992]: V.flac
Track gain : 3.90 dB
Peak : 0.933044
CRC32 hash (test run) : A385E0CA
CRC32 hash : A385E0CA
CRC32 hash (skip zero) : 2686EE42
AccurateRip v1 signature : 6A88EC00
AccurateRip v2 signature : D4F27C45
->Track not present in AccurateRip database.
Statistics
Read error : 0
Jitter error (maybe fixed) : 0
Retry sector count : 0
Damaged sector count : 0
Track 08
Filename : /Volumes/HGST Touro Desk 4TB 1/CD rips/Salvatore Sciarrino - Quartetto N.7 • Quartetto N.8 • Sei quartetti brevi - Quartetto Prometeo [Kairos]/08 Sei quartetti brevi [1967-1992]: VI.flac
Track gain : 14.35 dB
Peak : 0.953217
CRC32 hash (test run) : F3913BE3
CRC32 hash : F3913BE3
CRC32 hash (skip zero) : 7CE9AED7
AccurateRip v1 signature : 9A56B3D2
AccurateRip v2 signature : 598F6D32
->Track not present in AccurateRip database.
Statistics
Read error : 0
Jitter error (maybe fixed) : 0
Retry sector count : 0
Damaged sector count : 0
No errors occurred
End of status report
-----BEGIN XLD SIGNATURE-----
BjDXCagJcAfb1DWrRSk3Hs_mVaJZiOE4tkfM2bdlAeVax03DMP7YJJ6.EK2UGC8ZxtIZTf7BnnrmjB_1fv5Y9OlSyTKxrSFWlS.a0Z4
-----END XLD SIGNATURE-----

Содержание индексной карты (.CUE)

TITLE "String Quartets"
PERFORMER "Quartetto Prometeo"
CATALOG 9120010281815
REM DATE "2012"
REM DISCID 710AE408
REM REPLAYGAIN_ALBUM_GAIN 3.21 dB
REM REPLAYGAIN_ALBUM_PEAK 0.991791
FILE "01. Quartetto N. 7 (1999).flac" WAVE
TRACK 01 AUDIO
TITLE "Quartetto N. 7 (1999)"
PERFORMER "Quartetto Prometeo"
ISRC ATK941132101
FLAGS DCP
REM REPLAYGAIN_TRACK_GAIN 3.49 dB
REM REPLAYGAIN_TRACK_PEAK 0.953217
INDEX 01 00:00:00
TRACK 02 AUDIO
TITLE "Quartetto N. 8 (2008)"
PERFORMER "Quartetto Prometeo"
ISRC ATK941132102
FLAGS DCP
REM REPLAYGAIN_TRACK_GAIN 2.78 dB
REM REPLAYGAIN_TRACK_PEAK 0.944366
INDEX 00 09:38:16
FILE "02. Quartetto N. 8 (2008).flac" WAVE
INDEX 01 00:00:00
TRACK 03 AUDIO
TITLE "Sei quartetti brevi (1967–1992): I"
PERFORMER "Quartetto Prometeo"
ISRC ATK941132103
FLAGS DCP
REM REPLAYGAIN_TRACK_GAIN -0.76 dB
REM REPLAYGAIN_TRACK_PEAK 0.991791
INDEX 00 18:21:46
FILE "03. Sei quartetti brevi (1967–1992). I.flac" WAVE
INDEX 01 00:00:00
FILE "04. Sei quartetti brevi (1967–1992). II.flac" WAVE
TRACK 04 AUDIO
TITLE "Sei quartetti brevi (1967–1992): II"
PERFORMER "Quartetto Prometeo"
ISRC ATK941132104
FLAGS DCP
REM REPLAYGAIN_TRACK_GAIN 13.51 dB
REM REPLAYGAIN_TRACK_PEAK 0.460876
INDEX 01 00:00:00
FILE "05. Sei quartetti brevi (1967–1992). III.flac" WAVE
TRACK 05 AUDIO
TITLE "Sei quartetti brevi (1967–1992): III"
PERFORMER "Quartetto Prometeo"
ISRC ATK941132105
FLAGS DCP
REM REPLAYGAIN_TRACK_GAIN 2.03 dB
REM REPLAYGAIN_TRACK_PEAK 0.917297
INDEX 01 00:00:00
FILE "06. Sei quartetti brevi (1967–1992). IV.flac" WAVE
TRACK 06 AUDIO
TITLE "Sei quartetti brevi (1967–1992): IV"
PERFORMER "Quartetto Prometeo"
ISRC ATK941132106
FLAGS DCP
REM REPLAYGAIN_TRACK_GAIN 13.93 dB
REM REPLAYGAIN_TRACK_PEAK 0.321442
INDEX 01 00:00:00
FILE "07. Sei quartetti brevi (1967–1992). V.flac" WAVE
TRACK 07 AUDIO
TITLE "Sei quartetti brevi (1967–1992): V"
PERFORMER "Quartetto Prometeo"
ISRC ATK941132107
FLAGS DCP
REM REPLAYGAIN_TRACK_GAIN 3.90 dB
REM REPLAYGAIN_TRACK_PEAK 0.933044
INDEX 01 00:00:00
FILE "08. Sei quartetti brevi (1967–1992). VI.flac" WAVE
TRACK 08 AUDIO
TITLE "Sei quartetti brevi (1967–1992): VI"
PERFORMER "Quartetto Prometeo"
ISRC ATK941132108
FLAGS DCP
REM REPLAYGAIN_TRACK_GAIN 14.35 dB
REM REPLAYGAIN_TRACK_PEAK 0.953217
INDEX 01 00:00:00



Показать сообщения:    

Текущее время: 09-Дек 20:29

Часовой пояс: UTC + 3


Вы не можете начинать темы
Вы не можете отвечать на сообщения
Вы не можете редактировать свои сообщения
Вы не можете удалять свои сообщения
Вы не можете голосовать в опросах
Вы не можете прикреплять файлы к сообщениям
Вы не можете скачивать файлы