[TR24][OF] Wolfgang Amadeus Mozart - Die Entfuhrung aus dem Serail / В. А. Моцарт - Похищение из сераля (Yannick Nezet-Seguin; Diana Damrau, Anna Prohaska, Rolando Villazon, Paul Schweinester), 2015 - live at Festspielhaus Baden-Baden / 2015 (Opera)


Статистика раздачи [Обновить пиров]
Размер:  2.77 GB   |    Зарегистрирован:  8 месяцев 22 дня   |    Скачан:  0 раз

Полного источника не было: Никогда

 
   
 
 
 

[Цитировать]

Wolfgang Amadeus Mozart - Die Entführung aus dem Serail (Yannick Nézet-Séguin; Diana Damrau, Anna Prohaska, Rolando Villazón, Paul Schweinester, Franz-Josef Selig)
Формат записи/Источник записи: [TR24][OF]
Наличие водяных знаков: Нет
Год издания/переиздания диска: 2015
Жанр: Opera
Издатель(лейбл): Deutsche Grammophon
Продолжительность: 02:18:40
Исполнители:
Diana Damrau,
Anna Prohaska,
Rolando Villazón,
Paul Schweinester,
Franz-Josef Selig,
Thomas Quasthoff.
Chamber Orchestra of Europe,
Yannick Nézet-Séguin, Conductor,
Vocalensemble Rastatt.
Recorded live at Festspielhaus Baden-Baden, July 2014.
Контейнер: FLAC (*.flac)
Тип рипа: tracks
Разрядность: 24/96
Количество каналов: 2.0
Источник: HDTracks

Треклист

Disc 1:
1. Ouvertüre
2. Nr. 1 Arie: Hier soll ich dich denn sehen
3. Nr. 2 Lied und Duett: Wer ein Liebchen hat gefunden
4. Nun, wie steht s, Osmin?
5. Nr. 3 Arie: Solche hergelaufne Laffen
6. Geh nur, verwünschter Aufpasser!
7. Nr. 4 Rezitativ und Arie: Konstanze, dich wiederzusehen
8. Geschwind, geschwind auf die Seite!
9. Nr. 5b Chor der Janitscharen: Singt dem großen Bassa Lieder
10. Immer noch traurig, geliebte Konstanze
11. Nr. 6 Arie: Ach ich liebte, war so glücklich
12. Halt ein, nicht ein Wort!
13. Nr. 7 Terzett: Marsch, marsch, marsch! Trollt euch fort!
14. O des Zankens, Befehlens und Murrens
15. Nr. 8 Arie: Durch Zärtlichkeit und Schmeicheln
16. Zärtlichkeit? Schmeicheln?
17. Nr. 9 Duett: Ich gehe, doch rate ich dir
18. Wie traurig das gute Mädchen daherkommt!
19. Welcher Wechsel herrscht in meiner Seele
20. Traurigkeit ward mir zum Lose
21. Mein bestes Fräulein, noch immer so traurig?
22. Nr. 11 Arie: Martern aller Arten
Disc 2:
1. Ist das ein Traum?
2. Pst, pst, Blondchen!
3. Nr. 12 Arie: Welche Wonne, welche Lust
4. Dass es schon vorbei wäre
5. Ha! Geht s hier so lustig zu?
6. Nr. 14 Duett: Vivat Bacchus! Bacchus lebe!
7. Wahrhaftig, das muss ich gestehen, es geht doch nichts über den Wein!
8. Nr. 15 Arie: Wenn der Freude Tränen fließen
9. Nr. 16 Quartett: Ach, Belmonte! Ach, mein Leben!
10. O Konstanze, je näher der Augenblick kommt
11. Nr. 17 Arie: Ich baue ganz auf deine Stärke
12. Alles liegt auf dem Ohr
13. Wie ängstlich schlägt mein Herz!
14. Nr. 19 Arie: Ho, wie will ich triumphieren
15. Was gibt s, Osmin?
16. Welch ein Geschick! O Qual der Seele!
17. Meinetwegen sollst du sterben!
18. Nun, zitterst du? Erwartest du dein Urteil?
19. Vaudeville: Nie werd ich deine Huld verkennen
20. Chor der Janitscharen: Bassa Selim lebe lange

Dynamic Range Meter

foobar2000 1.3.6 / Замер динамического диапазона (DR) 1.1.1
Дата отчёта: 2015-08-03 19:43:16
--------------------------------------------------------------------------------
Анализ: Anna Prohaska, Chamber Orchestra of Europe, Yannick Nezet-Seguin / Die Entführung aus dem Serail (1-4)
Anna Prohaska, Franz-Josef Selig, Chamber Orchestra of Europe, Yannick Nezet-Seguin / Die Entführung aus dem Serail (5-6)
Anna Prohaska, Paul Schweinester, Chamber Orchestra of Europe, Yannick Nezet-Seguin / Die Entführung aus dem Serail (7)
Chamber Orchestra of Europe, Yannick Nezet-Seguin, Vocalensemble Rastatt / Die Entführung aus dem Serail (8-9)
Chamber Orchestra of Europe, Yannick Nezet-Seguin / Die Entführung aus dem Serail (10)
Diana Damrau, Anna Prohaska, Rolando Villazon, Paul Schweinester, Chamber Orchestra of Europe, Yannick Nezet-Seguin / Die Entführung aus dem Serail (11)
Diana Damrau, Anna Prohaska, Rolando Villazon, Paul Schweinester, Franz-Josef Selig, Chamber Orchestra of Europe, Yannick Nezet-Seguin / Die Entführung aus dem Serail (12-13)
Diana Damrau, Anna Prohaska, Thomas Quasthoff, Chamber Orchestra of Europe, Yannick Nezet-Seguin / Die Entführung aus dem Serail (14)
Diana Damrau, Chamber Orchestra of Europe, Yannick Nezet-Seguin / Die Entführung aus dem Serail (15-18)
Diana Damrau, Rolando Villazon, Chamber Orchestra of Europe, Yannick Nezet-Seguin / Die Entführung aus dem Serail (19-20)
Diana Damrau, Rolando Villazon, Franz-Josef Selig, Thomas Quasthoff, Chamber Orchestra of Europe, Yannick Nezet-Seguin / Die Entführung aus dem Serail (21)
Diana Damrau, Rolando Villazon, Paul Schweinester, Franz-Josef Selig, Chamber Orchestra of Europe, Yannick Nezet-Seguin / Die Entführung aus dem Serail (22)
Diana Damrau, Rolando Villazon, Paul Schweinester, Franz-Josef Selig, Thomas Quasthoff, Chamber Orchestra of Europe, Yannick Nezet-Seguin / Die Entführung aus dem Serail (23-24)
Diana Damrau, Thomas Quasthoff, Chamber Orchestra of Europe, Yannick Nezet-Seguin / Die Entführung aus dem Serail (25)
Franz-Josef Selig, Chamber Orchestra of Europe, Yannick Nezet-Seguin / Die Entführung aus dem Serail (26)
Paul Schweinester, Chamber Orchestra of Europe, Yannick Nezet-Seguin / Die Entführung aus dem Serail (27-28)
Paul Schweinester, Franz-Josef Selig, Chamber Orchestra of Europe, Yannick Nezet-Seguin / Die Entführung aus dem Serail (29-32)
Rolando Villazon, Chamber Orchestra of Europe, Yannick Nezet-Seguin / Die Entführung aus dem Serail (33-36)
Rolando Villazon, Franz-Josef Selig, Chamber Orchestra of Europe, Yannick Nezet-Seguin / Die Entführung aus dem Serail (37)
Rolando Villazon, Paul Schweinester, Chamber Orchestra of Europe, Yannick Nezet-Seguin / Die Entführung aus dem Serail (38-40)
Rolando Villazon, Paul Schweinester, Franz-Josef Selig, Chamber Orchestra of Europe, Yannick Nezet-Seguin / Die Entführung aus dem Serail (41)
Thomas Quasthoff, Chamber Orchestra of Europe, Yannick Nezet-Seguin / Die Entführung aus dem Serail (42)
--------------------------------------------------------------------------------
DR Пики RMS Продолжительность трека
--------------------------------------------------------------------------------
DR11 -12.13 дБ -35.90 дБ 0:25 14-Act 2 - O des Zankens, Befehlens und Murrens
DR14 -3.29 дБ -22.67 дБ 4:38 15-Act 2 - Nr. 8 Arie: Durch Zartlichkeit und Schmeicheln
DR15 -20.09 дБ -41.88 дБ 0:27 18-Act 2 - Wie traurig das gute Madchen daherkommt!
DR14 -2.82 дБ -20.56 дБ 3:01 25-Act 2 - Nr. 12 Arie: Welche Wonne, welche Lust
DR17 -0.30 дБ -28.75 дБ 2:11 16-Act 2 - Zartlichkeit? Schmeicheln?
DR15 -0.30 дБ -20.11 дБ 3:44 17-Act 2 - Nr. 9 Duett: Ich gehe, doch rate ich dir … O Englander! Seid ihr nicht Toren
DR16 -11.36 дБ -33.05 дБ 1:01 24-Act 2 - Pst, pst, Blondchen!
DR10 -0.30 дБ -13.35 дБ 1:35 09-Act 1 - Nr. 5b Chor der Janitscharen: Singt dem grosen Bassa Lieder
DR10 -0.30 дБ -13.21 дБ 1:21 42-Act 3 - Nr. 21b Chor der Janitscharen: Bassa Selim lebe lange
DR13 -0.30 дБ -19.35 дБ 4:06 01-Ouverture
DR13 -0.30 дБ -18.42 дБ 10:30 31-Act 2 - Nr. 16 Quartett: Ach, Belmonte! Ach, mein Leben!
DR18 -7.01 дБ -29.59 дБ 1:14 35-Act 3 - Wie angstlich schlagt mein Herz ... Blondchen? Blondchen? Gift und Dolch!
DR14 -0.30 дБ -19.41 дБ 3:55 41-Act 3 - Nr. 21a Vaudeville: Nie werd' ich deine Huld verkennen
DR17 -0.30 дБ -30.87 дБ 2:08 21-Act 2 - Mein bestes Fraulein, noch immer so traurig? ... Nun, Konstanze, denkst du meinem Begehren nach?
DR12 -0.30 дБ -17.34 дБ 5:20 11-Act 1 - Nr. 6 Arie: Ach ich liebte, war so glucklich
DR14 -5.21 дБ -26.18 дБ 2:10 19-Act 2 - Nr. 10 Rezitativ und Arie: Welcher Wechsel herrscht in meiner Seele
DR16 -0.30 дБ -21.04 дБ 7:24 20-Act 2 - Traurigkeit ward mir zum Lose
DR14 -0.30 дБ -17.98 дБ 10:14 22-Act 2 - Nr. 11 Arie: Martern aller Arten
DR13 -5.31 дБ -25.17 дБ 2:20 38-Act 3 - Nr. 20 Rezitativ und Duett: Welch ein Geschick! O Qual der Seele!
DR13 -0.55 дБ -18.80 дБ 6:56 39-Act 3 - Meinetwegen sollst du sterben!
DR21 -3.40 дБ -32.28 дБ 2:55 37-Act 3 - Was gibt's, Osmin?
DR19 -10.83 дБ -34.91 дБ 1:56 29-Act 2 - Wahrhaftig, das muss ich gestehen, es geht doch nichts uber den Wein! ... Ach, kommen Sie, Herr!
DR18 -8.58 дБ -33.55 дБ 3:18 12-Act 1 - Halt ein, nicht ein Wort! ... Herr! Verzeih, dass ich es wage ... Triumph, Triumph, Herr!
DR17 -8.53 дБ -33.75 дБ 2:29 40-Act 3 - Nun, zitterst du? Erwartest du dein Urteil?
DR18 -11.26 дБ -35.26 дБ 0:57 10-Act 1 - Immer noch traurig, geliebte Konstanze
DR15 -0.30 дБ -21.38 дБ 3:27 36-Act 3 - Nr. 19 Arie: Ho, wie will ich triumphieren
DR17 -0.30 дБ -19.78 дБ 1:16 08-Act 1 - Geschwind, geschwind auf die Seite! ... Nr. 5a Marsch
DR13 -0.30 дБ -19.83 дБ 3:37 26-Act 2 - Dass es schon vorbei ware ... Nr. 13 Arie: Frisch zum Kampfe! Frisch zum Streite!
DR15 -7.77 дБ -30.09 дБ 0:30 04-Act 1 - Nun, wie steht's, Osmin?
DR15 -0.30 дБ -20.05 дБ 5:08 05-Act 1 - Nr. 3 Arie: Solche hergelaufne Laffen
DR17 -9.90 дБ -32.07 дБ 1:18 27-Act 2 - Ha! Geht's hier so lustig zu?
DR15 -0.30 дБ -20.38 дБ 2:10 28-Act 2 - Nr. 14 Duett: Vivat Bacchus! Bacchus lebe!
DR13 -5.00 дБ -22.89 дБ 2:42 02-Act 1 - Nr. 1 Arie: Hier soll ich dich denn sehen ... Aber wie soll ich in den Palast kommen?
DR14 -3.55 дБ -23.05 дБ 6:03 30-Act 2 - Nr. 15 Arie: Wenn der Freude Tranen fliesen
DR13 -26.89 дБ -44.23 дБ 0:18 32-Act 3 - O Konstanze, je naher der Augenblick kommt
DR14 -5.30 дБ -23.22 дБ 6:18 33-Act 3 - Nr. 17 Arie: Ich baue ganz auf deine Starke
DR15 -0.30 дБ -20.22 дБ 6:33 03-Act 1 - Nr. 2 Lied und Duett: Wer ein Liebchen hat gefunden … Verwunscht seist du
DR17 -13.42 дБ -35.55 дБ 2:25 06-Act 1 - Geh nur, verwunschter Aufpasser!
DR13 -6.36 дБ -23.54 дБ 5:18 07-Act 1 - Nr. 4 Rezitativ und Arie: Konstanze, dich wiederzusehen … O wie angstlich, o wie feurig
DR16 -7.53 дБ -31.23 дБ 2:49 34-Act 3 - Alles liegt auf dem Ohr ... Nr. 18 Romanze: In Mohrenland gefangen war
DR12 -0.30 дБ -16.67 дБ 2:05 13-Act 1 - Nr. 7 Terzett: Marsch, marsch, marsch! Trollt euch fort!
DR18 -19.17 дБ -41.94 дБ 0:44 23-Act 2 - Ist das ein Traum?
--------------------------------------------------------------------------------
Количество треков: 42
Реальные значения DR: DR15
Частота: 96000 Гц
Каналов: 2
Разрядность: 24
Битрейт: 2552 кбит/с
Кодек: FLAC
================================================================================
[teatrix.ru].t21769.torrent 
Торрент: Зарегистрирован [ 2016-03-20 12:54 ] · 46B14064696701FC2CCC6B28A33CE141FD4BB3BC

Скачать .torrent

Скачать

18 KB

Статус: проверено
Скачан: 0 раз
Размер: 2.77 GB
terms.php



Быстрый ответ

Имя:

      
Для отправки сообщений необходимо включить JavaScript
Показать сообщения:    

Текущее время: 11-Дек 16:54

Часовой пояс: UTC + 3


Вы можете начинать темы
Вы можете отвечать на сообщения
Вы не можете редактировать свои сообщения
Вы не можете удалять свои сообщения
Вы не можете голосовать в опросах
Вы не можете прикреплять файлы к сообщениям
Вы можете скачивать файлы