(Classical) Edvard Grieg - Chamber Music - Московское трио, Александр Винницкий, Владимир Овчинников, Александр Рудин, Владимир Сканави - 2013, FLAC (image+.cue) lossless


 

[Цитировать]

Edvard Grieg - Chamber Music - Московское трио, Александр Винницкий, Владимир Овчинников, Александр Рудин, Владимир Сканави
Жанр: Classical
Год издания диска: 2013
Издатель (лейбл): Brilliant Classics
Номер по каталогу: 94642
Дата записи: 1991
Аудиокодек: FLAC
Тип рипа: image+.cue
Битрейт аудио: lossless
Продолжительность: 166:27
Источник: собственный рип
Наличие сканов в содержимом раздачи: да
Треклист:
Edvard Grieg (1843-1907)

CD1

[1]-[3] Violin Sonata No.1 in F major, Op.8 (1865)
[4]-[6] Violin Sonata No.2 in G major, Op.13 (1867)
Александр Винницкий скрипка
Владимир Овчинников фортепиано
[7] Andante con moto for piano trio (1878)
Московское трио

CD2

[1]-[3] Violin Sonata No.3 in C minor, Op.45 (1886-87)
Александр Винницкий скрипка
Владимир Овчинников фортепиано
[4]-[6] Cello Sonata in A minor, Op.36 (1883)
Александр Рудин виолончель
Владимир Сканави фортепиано

CD3

[1]-[4] String Quartet No.1 in G minor, Op.27 (1877-78)
[5]-[6] String Quartet No.2 in F major (unfinished) (1891)
Александр Чернов скрипка
Ирина Попова скрипка
Игорь Богуславский альт
Александр Рудин виолончель
Исполнители:
Московское трио
Александр Бондурянский фортепиано
Владимир Иванов скрипка
Михаил Уткин виолончель
Александр Винницкий скрипка
Владимир Овчинников фортепиано
Александр Рудин виолончель
Владимир Сканави фортепиано
Александр Чернов скрипка
Ирина Попова скрипка
Игорь Богуславский альт

Лог создания рипа: CD1

Exact Audio Copy V1.0 beta 3 from 29. August 2011
EAC extraction logfile from 31. January 2015, 9:45
Alexander Vinnitsky, Vladimir Ovchinnikov / Grieg - Chamber Music - CD1
Used drive : HL-DT-STDVDRAM GU70N Adapter: 0 ID: 0
Read mode : Secure
Utilize accurate stream : Yes
Defeat audio cache : Yes
Make use of C2 pointers : No
Read offset correction : 48
Overread into Lead-In and Lead-Out : No
Fill up missing offset samples with silence : Yes
Delete leading and trailing silent blocks : No
Null samples used in CRC calculations : Yes
Used interface : Native Win32 interface for Win NT & 2000
Used output format : User Defined Encoder
Selected bitrate : 128 kBit/s
Quality : High
Add ID3 tag : No
Command line compressor : C:\Program Files (x86)\Exact Audio Copy\Flac\flac.exe
Additional command line options : -V -8 -T "Date=%year%" -T "Genre=%genre%" %source%
TOC of the extracted CD
Track | Start | Length | Start sector | End sector
---------------------------------------------------------
1 | 0:00.32 | 9:49.25 | 32 | 44231
2 | 9:49.57 | 5:55.63 | 44232 | 70919
3 | 15:45.45 | 9:19.70 | 70920 | 112914
4 | 25:05.40 | 8:49.07 | 112915 | 152596
5 | 33:54.47 | 6:31.03 | 152597 | 181924
6 | 40:25.50 | 5:19.70 | 181925 | 205919
7 | 45:45.45 | 10:17.20 | 205920 | 252214
Range status and errors
Selected range
Filename C:\temp\Grieg - Chamber Music\CD1\Grieg - Chamber Music - CD1.wav
Peak level 96.3 %
Extraction speed 2.0 X
Range quality 100.0 %
Test CRC D517FCF9
Copy CRC D517FCF9
Copy OK
No errors occurred
AccurateRip summary
Track 1 cannot be verified as accurate (confidence 5) [8BB543B2], AccurateRip returned [AB77BA6C] (AR v2)
Track 2 cannot be verified as accurate (confidence 5) [475CCCE7], AccurateRip returned [7EAD9A48] (AR v2)
Track 3 cannot be verified as accurate (confidence 5) [FE02E4A7], AccurateRip returned [23D4C486] (AR v2)
Track 4 cannot be verified as accurate (confidence 5) [9BED281D], AccurateRip returned [403B132B] (AR v2)
Track 5 cannot be verified as accurate (confidence 5) [6FB10D44], AccurateRip returned [18E317D8] (AR v2)
Track 6 cannot be verified as accurate (confidence 5) [95A5BE18], AccurateRip returned [101B0A4D] (AR v2)
Track 7 cannot be verified as accurate (confidence 5) [3AC94ECA], AccurateRip returned [F0FB6CD3] (AR v2)
No tracks could be verified as accurate
You may have a different pressing from the one(s) in the database
End of status report
==== Log checksum 0A20B7C9B8B173DE693BF87C5DACC14CCC401648BDAB4FFF4744FF72171F4CAF ====

Лог создания рипа: CD2

Exact Audio Copy V1.0 beta 3 from 29. August 2011
EAC extraction logfile from 31. January 2015, 11:03
- / Grieg - Chamber Music - CD2
Used drive : HL-DT-STDVDRAM GU70N Adapter: 0 ID: 0
Read mode : Secure
Utilize accurate stream : Yes
Defeat audio cache : Yes
Make use of C2 pointers : No
Read offset correction : 48
Overread into Lead-In and Lead-Out : No
Fill up missing offset samples with silence : Yes
Delete leading and trailing silent blocks : No
Null samples used in CRC calculations : Yes
Used interface : Native Win32 interface for Win NT & 2000
Used output format : User Defined Encoder
Selected bitrate : 128 kBit/s
Quality : High
Add ID3 tag : No
Command line compressor : C:\Program Files (x86)\Exact Audio Copy\Flac\flac.exe
Additional command line options : -V -8 -T "Date=%year%" -T "Genre=%genre%" %source%
TOC of the extracted CD
Track | Start | Length | Start sector | End sector
---------------------------------------------------------
1 | 0:00.32 | 9:52.55 | 32 | 44486
2 | 9:53.12 | 7:17.65 | 44487 | 77326
3 | 17:11.02 | 8:06.43 | 77327 | 113819
4 | 25:17.45 | 9:14.10 | 113820 | 155379
5 | 34:31.55 | 6:45.70 | 155380 | 185824
6 | 41:17.50 | 12:02.15 | 185825 | 239989
Range status and errors
Selected range
Filename C:\temp\Grieg - Chamber Music\CD2\Grieg - Chamber Music - CD2.wav
Peak level 92.7 %
Extraction speed 2.0 X
Range quality 100.0 %
Test CRC D7B81263
Copy CRC D7B81263
Copy OK
No errors occurred
AccurateRip summary
Track 1 cannot be verified as accurate (confidence 4) [DFB719AF], AccurateRip returned [35B5FA58] (AR v2)
Track 2 cannot be verified as accurate (confidence 4) [C15DC751], AccurateRip returned [F3BD670D] (AR v2)
Track 3 cannot be verified as accurate (confidence 4) [5F8B5CE7], AccurateRip returned [D92ACA34] (AR v2)
Track 4 cannot be verified as accurate (confidence 4) [E8DE0A7D], AccurateRip returned [52C51625] (AR v2)
Track 5 cannot be verified as accurate (confidence 4) [72E64ABF], AccurateRip returned [77754D86] (AR v2)
Track 6 cannot be verified as accurate (confidence 4) [C7A3D09C], AccurateRip returned [25C7CFAB] (AR v2)
No tracks could be verified as accurate
You may have a different pressing from the one(s) in the database
End of status report
==== Log checksum 36C6C16EB6F5058EF72BFB2572D3FC0A6907DE6284F18655A4CC924DB4CE7168 ====

Лог создания рипа: CD3

Exact Audio Copy V1.0 beta 3 from 29. August 2011
EAC extraction logfile from 31. January 2015, 12:06
Alexander Tchernov, Irina Popova, Igor Boguslavsky, Alexander Rudin / Grieg - Chamber Music - CD3
Used drive : HL-DT-STDVDRAM GU70N Adapter: 0 ID: 0
Read mode : Secure
Utilize accurate stream : Yes
Defeat audio cache : Yes
Make use of C2 pointers : No
Read offset correction : 48
Overread into Lead-In and Lead-Out : No
Fill up missing offset samples with silence : Yes
Delete leading and trailing silent blocks : No
Null samples used in CRC calculations : Yes
Used interface : Native Win32 interface for Win NT & 2000
Used output format : User Defined Encoder
Selected bitrate : 128 kBit/s
Quality : High
Add ID3 tag : No
Command line compressor : C:\Program Files (x86)\Exact Audio Copy\Flac\flac.exe
Additional command line options : -V -8 -T "Date=%year%" -T "Genre=%genre%" %source%
TOC of the extracted CD
Track | Start | Length | Start sector | End sector
---------------------------------------------------------
1 | 0:00.00 | 13:09.65 | 0 | 59239
2 | 13:09.65 | 6:21.13 | 59240 | 87827
3 | 19:31.03 | 6:54.70 | 87828 | 118947
4 | 26:25.73 | 9:46.15 | 118948 | 162912
5 | 36:12.13 | 13:25.60 | 162913 | 223347
6 | 49:37.73 | 7:10.35 | 223348 | 255632
Range status and errors
Selected range
Filename C:\temp\Grieg - Chamber Music\CD3\Grieg - Chamber Music - CD3.wav
Peak level 87.6 %
Extraction speed 2.0 X
Range quality 100.0 %
Test CRC 130A5D7A
Copy CRC 130A5D7A
Copy OK
No errors occurred
AccurateRip summary
Track 1 not present in database
Track 2 not present in database
Track 3 not present in database
Track 4 not present in database
Track 5 not present in database
Track 6 not present in database
None of the tracks are present in the AccurateRip database
End of status report
==== Log checksum 97FFFE9B958A902CF478E472F461F576845BE601476D8BD8FC816CEC92ED17D0 ====



Показать сообщения:    

Текущее время: 05-Дек 23:39

Часовой пояс: UTC + 3


Вы не можете начинать темы
Вы не можете отвечать на сообщения
Вы не можете редактировать свои сообщения
Вы не можете удалять свои сообщения
Вы не можете голосовать в опросах
Вы не можете прикреплять файлы к сообщениям
Вы не можете скачивать файлы