Военная игра / The War Game (Питер Уоткинс / Peter Watkins) [1965, Великобритания, драма, постапокалипсис, документальный, DVDRip] VO (Bezkartuza) + Sub Rus + Original Eng


Статистика раздачи [Обновить пиров]
Размер:  742 MB   |    Зарегистрирован:  8 месяцев 21 день   |    Скачан:  0 раз

Полного источника не было: Никогда

 
   
 
 
 

[Цитировать]

Военная игра / The War Game
Страна: Великобритания
Жанр: драма, постапокалипсис, документальный
Год выпуска: 1965
Продолжительность: 00:48:38
Перевод: Одноголосый закадровый - Bezkartuza
Cубтитры: русские (idqtuvvx)
Оригинальная аудиодорожка: английский

Режиссер: Питер Уоткинс / Peter Watkins
Описание: "Военная игра" - телевизионный фильм о ядерной войне. Автором сценария, режиссером и продюсером картины стал Питер Уоткинс. В фильме рассказывается о последствиях советского ядерного удара по Великобритании. Было запланировано, что фильм выйдет на BBC 6-го августа 1966-го года, в годовщину ядерной бомбардировки Хиросимы, но так и не был показан по телевидению до 1985-го года. BBC объяснила невыпуск фильма на экран тем, что его содержание было слишком ужасным для телевидения. Как бы то ни было, фильм получил широкую известность, распространяемый на видеокассетах и демонстрируемый в кинотеатрах арт-хаусной направленности. В 1966-м фильм получил специальный приз Венецианского фестиваля, а в 1967-м году "Военная игра" получил Оскар как лучший документальный фильм, награды Британской академии кино и телевизионных искусств и Международного фестиваля документальных и короткометражных фильмов в Бильбао.
Качество видео: DVDRip
Формат видео: AVI
Видео: 640x480 (1.33:1), 23.976 fps, XviD build 73 ~1734 kbps avg, 0.23 bit/pixel
Аудио: 48 kHz, AC3 Dolby Digital, 2/0 (L,R) ch, ~192 kbps - одноголосый
Аудио: 48 kHz, AC3 Dolby Digital, 2/0 (L,R) ch, ~192 kbps - оригинал

MediaInfo

Общее
Полное имя : H:\The.War.Game1965.dvdrip_[745]_[teko]\The.War.Game1965.dvdrip_[745].avi
Формат : AVI
Формат/Информация : Audio Video Interleave
Размер файла : 742 Мбайт
Продолжительность : 48 м.
Общий поток : 2133 Кбит/сек
Программа кодирования : VirtualDubMod 1.5.10.3 | www.virtualdub-fr.org || (build 2550/release)
Библиотека кодирования : VirtualDubMod build 2550/release
Видео
Идентификатор : 0
Формат : MPEG-4 Visual
Профиль формата : Advanced Simple@L5
Параметр BVOP формата : 2
Параметр QPel формата : Нет
Параметр GMC формата : Без точки перехода
Параметр матрицы формата : Выборочная
Идентификатор кодека : XVID
Идентификатор кодека/Подсказка : XviD
Продолжительность : 48 м.
Битрейт : 1735 Кбит/сек
Ширина : 640 пикселей
Высота : 480 пикселей
Соотношение сторон : 4:3
Частота кадров : 23,976 кадра/сек
Цветовое пространство : YUV
Субдискретизация насыщенности : 4:2:0
Битовая глубина : 8 бит
Тип развёртки : Прогрессивная
Метод сжатия : С потерями
Бит/(Пиксели*Кадры) : 0.236
Размер потока : 604 Мбайт (81%)
Библиотека кодирования : XviD 73
Аудио #1
Идентификатор : 1
Формат : AC-3
Формат/Информация : Audio Coding 3
Расширение режима : CM (complete main)
Параметр Endianness формата : Big
Идентификатор кодека : 2000
Продолжительность : 48 м.
Вид битрейта : Постоянный
Битрейт : 192 Кбит/сек
Каналы : 2 канала
Расположение каналов : Front: L R
Частота : 48,0 КГц
Битовая глубина : 16 бит
Метод сжатия : С потерями
Размер потока : 66,8 Мбайт (9%)
Выравнивание : Разделение по промежуткам
Продолжительность промежутка : 42 мс. (1,00 видеокадр)
Время предзагрузки промежутка : 500 мс.
Аудио #2
Идентификатор : 2
Формат : AC-3
Формат/Информация : Audio Coding 3
Расширение режима : CM (complete main)
Параметр Endianness формата : Big
Идентификатор кодека : 2000
Продолжительность : 48 м.
Вид битрейта : Постоянный
Битрейт : 192 Кбит/сек
Каналы : 2 канала
Расположение каналов : Front: L R
Частота : 48,0 КГц
Битовая глубина : 16 бит
Метод сжатия : С потерями
Размер потока : 66,8 Мбайт (9%)
Выравнивание : Разделение по промежуткам
Продолжительность промежутка : 42 мс. (1,00 видеокадр)
Время предзагрузки промежутка : 500 мс.

Скриншоты

[teatrix.ru].t21777.torrent 
Торрент: Зарегистрирован [ 2016-03-20 12:53 ] · 1286203E4D6AF7889DE4DD6AA1CF6CBF7160DA65

Скачать .torrent

Скачать

15 KB

Статус: проверено
Скачан: 0 раз
Размер: 742 MB
terms.php



Быстрый ответ

Имя:

      
Для отправки сообщений необходимо включить JavaScript
Показать сообщения:    

Текущее время: 10-Дек 17:45

Часовой пояс: UTC + 3


Вы можете начинать темы
Вы можете отвечать на сообщения
Вы не можете редактировать свои сообщения
Вы не можете удалять свои сообщения
Вы не можете голосовать в опросах
Вы не можете прикреплять файлы к сообщениям
Вы можете скачивать файлы