Luigi Nono - Intolleranza 1960 / Луиджи Ноно - Нетерпимость 1960 (Lothar Zagrosek, Stefan Vinke, Cornelia Horak, Julie Mellor, Alessandro Paliaga, Michael Leibundgut, Roberto Abbati) [2011, Opera, Contemporary Classic, Avant-garde, DVB]


 

[Цитировать]

Луиджи Ноно - Нетерпимость 1960
Luigi Nono - Intolleranza 1960- Год выпуска: 2011Лейбл: Oxymore, Jim & Jules
Страна-производитель: Франция, Италия
Жанр: Opera, Contemporary Classic, Avant-garde
Продолжительность: 01:03:55
Язык: итальянский
Перевод: отсутствует
Субтитры: французские вшитые
Режиссер/Хореограф: Fabrice Levillain
Исполнители: Хор и оркестр: Teatro La Fenice di Venezia
Дирижер: Lothar Zagrosek
Солисты: Stefan Vinke (ein Flüchtling), Cornelia Horak (seine Gefährtin), Julie Mellor (eine Frau), Alessandro Paliaga (ein Algerier), Michael Leibundgut (ein Gefolterter), Roberto Abbati (ein Gendarm)
Треклист:
Part One
01. Opening chorus
02. In a mining village
03. A woman rushes in
04. In a city
05. In a police station
06. The torture
07. In a concentration camp
08. After the escape
Part Two
01. Some absurdities of contemporary life
02. A meeting between a refugee and his companion
03. Projections of episodes of terror and fanaticism
04. In the vicinity of a village on the banks of a great river
05. Final chorus
Описание: Слова Жана-Поля Сартра, Бертольда Брехта, Поля Элюара, Юлиуса Фучика, Владимира Маяковского
Опера "Нетерпимость 1960" посвящена Арнольду Шёнбергу, австрийскому и американскому композитору, педагогу, музыковеду, дирижёру, публицисту, крупнейшему представителю музыкального экспрессионизма, основоположнику новой венской школы.
"Пробуждение гуманистического сознания человека (шахтёра-эмигранта), который, взбунтовавшись против нужды, ищет смысл и "гуманную" основу жизни. Пережив испытания ненавистью и насилием, он вновь находит связь между собой и такими же, как и он, людьми и вместе с ними гибнет в наводнении". (Луиджи Ноно)
Доп. информация: Hot Bird (13.0°E) TV5MONDE Europe DVB-S. Запись спектакля, прошедшего в Театре Ла Фениче в Венеции 28 января – 5 февраля 2011 года.
Качество видео: DVB
Формат/Контейнер: MKV
Видео кодек: MPEG2
Аудио кодек: MP2
Видео поток: MPEG Video 2, 720x576@1024x576 (16:9), 25 fps, ~2798 kbps avg, 0.270 bit/pixel
Аудио поток: MPEG Audio 2, 2 ch, 48 kHz, ~192.00 kbps avg

MediaInfo

Общее
Уникальный идентификатор : 229181648618279566086346005523792247945 (0xAC6AC7AC9FFD3D78913CA05BC84DBC89)
Полное имя : F:\My Torrents 3\[apreder]Luigi_Nono_Intolleranza_1960(2011)DVB.mkv
Формат : Matroska
Версия формата : Version 2
Размер файла : 1,36 Гбайт
Продолжительность : 1 ч. 3 м.
Режим общего битрейта : Переменный
Общий поток : 3051 Кбит/сек
Дата кодирования : UTC 2015-07-18 15:49:42
Программа кодирования : mkvmerge v8.1.0 ('Psychedelic Postcard') 64bit
Библиотека кодирования : libebml v1.3.1 + libmatroska v1.4.2
Attachements : cover.jpg / cover_small.jpg
Видео
Идентификатор : 1
Формат : MPEG Video
Версия формата : Version 2
Профиль формата : Main@Main
Параметр BVOP формата : Да
Параметр матрицы формата : Выборочная
Параметр GOP формата : M=4, N=12
Format_Settings_PictureStructure : Frame
Идентификатор кодека : V_MPEG2
Идентификатор кодека/Информация : MPEG 1 or 2 Video
Продолжительность : 1 ч. 3 м.
Вид битрейта : Переменный
Битрейт : 2798 Кбит/сек
Ширина : 720 пикселей
Высота : 576 пикселей
Соотношение сторон : 16:9
Режим частоты кадров : Постоянный
Частота кадров : 25,000 кадров/сек
Стандарт вещания : PAL
Цветовое пространство : YUV
Субдискретизация насыщенности : 4:2:0
Битовая глубина : 8 бит
Тип развёртки : Чересстрочная
Порядок развёртки : Верхнее поле первое
Метод сжатия : С потерями
Бит/(Пиксели*Кадры) : 0.270
Временной код первого кадра : 00:00:00:00
Оригинал временного кода : Group of pictures header
Размер потока : 1,25 Гбайт (92%)
Default : Да
Forced : Нет
Аудио
Идентификатор : 2
Формат : MPEG Audio
Версия формата : Version 1
Профиль формата : Layer 2
Режим : Joint stereo
Расширение режима : Intensity Stereo + MS Stereo
Идентификатор кодека : A_MPEG/L2
Идентификатор кодека/Подсказка : MP2
Продолжительность : 1 ч. 3 м.
Вид битрейта : Постоянный
Битрейт : 192 Кбит/сек
Каналы : 2 канала
Частота : 48,0 КГц
Метод сжатия : С потерями
Размер потока : 87,8 Мбайт (6%)
Язык : Italian
Default : Да
Forced : Нет

Скриншоты


Резервные скриншоты


-[2'479]



Показать сообщения:    

Текущее время: 08-Дек 19:09

Часовой пояс: UTC + 3


Вы не можете начинать темы
Вы не можете отвечать на сообщения
Вы не можете редактировать свои сообщения
Вы не можете удалять свои сообщения
Вы не можете голосовать в опросах
Вы не можете прикреплять файлы к сообщениям
Вы не можете скачивать файлы