Дрю: Человек за плакатом / Drew: The Man Behind The Poster (Эрик Шарки / Эрик Старки / Erik Sharkey) [2013, документальный, биография, WEBRip] (rus, eng sub)


Статистика раздачи [Обновить пиров]
Размер:  1.16 GB   |    Зарегистрирован:  8 месяцев 15 дней   |    Скачан:  0 раз

Полного источника не было: Никогда

 
   
 
 
 

[Цитировать]


Дрю: Человек за плакатом / Drew: The Man Behind The Poster
Производство: США, 2013
Жанр: документальный, биография
Режиссёр: Эрик Шарки
Описание:
Документальный фильм освещает карьеру художника и иллюстратора Дрю Струзана, среди наиболее популярных работ которого – плакаты к фильмам об Индиане Джонсе, трилогии «Назад в будущее» и «Звёздным войнам». Картина включает в себя эксклюзивные интервью с Джорджем Лукасом, Стивеном Спилбергом, Харрисоном Фордом, Майклом Дж. Фоксом, Томасом Джейном, Фрэнком Дарабонтом, Гильермо дель Торо и другими кинематографистами, критиками и художниками. Это фильм-путешествие, который рассказывает о детстве Струзана и начале его карьеры, прослеживает, как он стал самым узнаваемым и влиятельным автором киноплакатов в мире, а также затрагивает его жизнь после выхода на пенсию.
Продолжительность: 01:37:17
Перевод: Субтитры (Павел Жуков aka Bugman, при участии Киномэна)
Технические характеристики::
Качество/формат: WEBRip, AVI
Видео: XviD, 1509 Kbps, 1280x718, 29.970 fps, 8 bits
Аудио: MPEG Audio Layer 3, 192 Kbps, 44.1 KHz, 2 channels
Субтитры: русские, английские (в формате SRT)

MediaInfo

General
Complete name : Drew-The Man Behind the Poster.avi
Format : AVI
Format/Info : Audio Video Interleave
File size : 1.16 GiB
Duration : 1h 37mn
Overall bit rate : 1 710 Kbps
Video
ID : 0
Format : MPEG-4 Visual
Format profile : Advanced Simple@L5
Format settings, BVOP : No
Format settings, QPel : No
Format settings, GMC : No warppoints
Format settings, Matrix : Default (MPEG)
Codec ID : XVID
Codec ID/Hint : XviD
Duration : 1h 37mn
Bit rate : 1 509 Kbps
Width : 1 280 pixels
Height : 718 pixels
Display aspect ratio : 16:9
Frame rate : 29.970 fps
Color space : YUV
Chroma subsampling : 4:2:0
Bit depth : 8 bits
Scan type : Progressive
Compression mode : Lossy
Bits/(Pixel*Frame) : 0.055
Stream size : 1.03 GiB (88%)
Writing library : XviD 62
Audio
ID : 1
Format : MPEG Audio
Format version : Version 1
Format profile : Layer 3
Codec ID : 55
Codec ID/Hint : MP3
Duration : 1h 37mn
Bit rate mode : Constant
Bit rate : 192 Kbps
Channel(s) : 2 channels
Sampling rate : 44.1 KHz
Compression mode : Lossy
Stream size : 134 MiB (11%)
Alignment : Split accross interleaves
Interleave, duration : 67 ms (2.00 video frames)
Writing library : LAMELAME_MAJOR_VERSI

Скриншоты

[teatrix.ru].t21779.torrent 
Торрент: Зарегистрирован [ 2016-03-20 12:53 ] · 745B662FD383F6FAD53BF47FA5CD889290F9F98C

Скачать .torrent

Скачать

12 KB

Статус: проверено
Скачан: 0 раз
Размер: 1.16 GB
terms.php



Быстрый ответ

Имя:

      
Для отправки сообщений необходимо включить JavaScript
Показать сообщения:    

Текущее время: 04-Дек 19:23

Часовой пояс: UTC + 3


Вы можете начинать темы
Вы можете отвечать на сообщения
Вы не можете редактировать свои сообщения
Вы не можете удалять свои сообщения
Вы не можете голосовать в опросах
Вы не можете прикреплять файлы к сообщениям
Вы можете скачивать файлы