(Classical) Britten, Dorati, Krenek - Oboe Music - Helen Jahren, Elisabeth Westenholz - 2004, FLAC (image+.cue) lossless


 

[Цитировать]

Britten, Dorati, Krenek - Oboe Music - Helen Jahren, Elisabeth Westenholz
Жанр: Classical
Страна-производитель диска: Sweden
Год издания диска: 2004
Издатель (лейбл): BIS
Номер по каталогу: BIS-CD-737
Дата записи: 1994, 2001
Аудиокодек: FLAC
Тип рипа: image+.cue
Битрейт аудио: lossless
Продолжительность: 72:18
Источник: собственный рип
Наличие сканов в содержимом раздачи: да
Треклист:
Benjamin Britten (1913-1976)
[1]-[9] Temporal Variations for oboe and piano (1936)
[10]-[15] Six Metamorphoses after Ovid for solo oboe, Op.49
[16]-[17] Two Insect Pieces for oboe and piano (1935)
Antal Doráti (1906-1988)
[18]-[22] Five Pieces for solo oboe (1980-81)
[23]-[24] Duo concertante for oboe and piano (1983)
Ernst Krenek (1900-1991)
[25]-[28] Sonatine for solo oboe (1956)
[29]-[32] Four Pieces for oboe and piano (1966)
Исполнители:
Helen Jahren oboe
Elisabeth Westenholz piano

Лог создания рипа

Exact Audio Copy V1.0 beta 3 from 29. August 2011
EAC extraction logfile from 4. February 2015, 9:01
Helen Jahren, Elisabeth Westenholz / Britten, Dorati, Krenek - Oboe Music
Used drive : HL-DT-STDVDRAM GU70N Adapter: 0 ID: 0
Read mode : Secure
Utilize accurate stream : Yes
Defeat audio cache : Yes
Make use of C2 pointers : No
Read offset correction : 48
Overread into Lead-In and Lead-Out : No
Fill up missing offset samples with silence : Yes
Delete leading and trailing silent blocks : No
Null samples used in CRC calculations : Yes
Used interface : Native Win32 interface for Win NT & 2000
Used output format : User Defined Encoder
Selected bitrate : 128 kBit/s
Quality : High
Add ID3 tag : No
Command line compressor : C:\Program Files (x86)\Exact Audio Copy\Flac\flac.exe
Additional command line options : -V -8 -T "Date=%year%" -T "Genre=%genre%" %source%
TOC of the extracted CD
Track | Start | Length | Start sector | End sector
---------------------------------------------------------
1 | 0:00.00 | 1:49.31 | 0 | 8205
2 | 1:49.31 | 1:39.43 | 8206 | 15673
3 | 3:28.74 | 1:05.27 | 15674 | 20575
4 | 4:34.26 | 1:00.56 | 20576 | 25131
5 | 5:35.07 | 1:25.25 | 25132 | 31531
6 | 7:00.32 | 2:14.33 | 31532 | 41614
7 | 9:14.65 | 1:19.15 | 41615 | 47554
8 | 10:34.05 | 1:09.15 | 47555 | 52744
9 | 11:43.20 | 2:08.25 | 52745 | 62369
10 | 13:51.45 | 2:28.16 | 62370 | 73485
11 | 16:19.61 | 1:27.52 | 73486 | 80062
12 | 17:47.38 | 2:07.67 | 80063 | 89654
13 | 19:55.30 | 2:12.44 | 89655 | 99598
14 | 22:07.74 | 3:02.73 | 99599 | 113321
15 | 25:10.72 | 2:53.25 | 113322 | 126321
16 | 28:04.22 | 1:58.17 | 126322 | 135188
17 | 30:02.39 | 1:57.72 | 135189 | 144035
18 | 32:00.36 | 2:44.14 | 144036 | 156349
19 | 34:44.50 | 3:16.12 | 156350 | 171061
20 | 38:00.62 | 2:42.45 | 171062 | 183256
21 | 40:43.32 | 2:22.35 | 183257 | 193941
22 | 43:05.67 | 2:41.54 | 193942 | 206070
23 | 45:47.46 | 7:32.10 | 206071 | 239980
24 | 53:19.56 | 7:06.65 | 239981 | 271995
25 | 60:26.46 | 0:47.26 | 271996 | 275546
26 | 61:13.72 | 1:35.48 | 275547 | 282719
27 | 62:49.45 | 0:55.73 | 282720 | 286917
28 | 63:45.43 | 1:45.72 | 286918 | 294864
29 | 65:31.40 | 1:31.74 | 294865 | 301763
30 | 67:03.39 | 1:52.56 | 301764 | 310219
31 | 68:56.20 | 1:22.43 | 310220 | 316412
32 | 70:18.63 | 1:59.72 | 316413 | 325409
Range status and errors
Selected range
Filename C:\temp\BIS-CD-0737 - Britten, Dorati, Krenek - Oboe Music\Britten, Dorati, Krenek - Oboe Music.wav
Peak level 98.1 %
Extraction speed 2.3 X
Range quality 100.0 %
Test CRC 0263B693
Copy CRC 0263B693
Copy OK
No errors occurred
AccurateRip summary
Track 1 not present in database
Track 2 not present in database
Track 3 not present in database
Track 4 not present in database
Track 5 not present in database
Track 6 not present in database
Track 7 not present in database
Track 8 not present in database
Track 9 not present in database
Track 10 not present in database
Track 11 not present in database
Track 12 not present in database
Track 13 not present in database
Track 14 not present in database
Track 15 not present in database
Track 16 not present in database
Track 17 not present in database
Track 18 not present in database
Track 19 not present in database
Track 20 not present in database
Track 21 not present in database
Track 22 not present in database
Track 23 not present in database
Track 24 not present in database
Track 25 not present in database
Track 26 not present in database
Track 27 not present in database
Track 28 not present in database
Track 29 not present in database
Track 30 not present in database
Track 31 not present in database
Track 32 not present in database
None of the tracks are present in the AccurateRip database
End of status report
==== Log checksum A976D328DD3A6110335A7E8D0ACA91E82BD9F88A1991EA6612C60B17E7389F87 ====



Показать сообщения:    

Текущее время: 08-Дек 17:24

Часовой пояс: UTC + 3


Вы не можете начинать темы
Вы не можете отвечать на сообщения
Вы не можете редактировать свои сообщения
Вы не можете удалять свои сообщения
Вы не можете голосовать в опросах
Вы не можете прикреплять файлы к сообщениям
Вы не можете скачивать файлы