(Opera) Erkel - Bank Ban (Simandy, Solyom-Nagy, Farago, Komlossy, Reti - Hungarian State Opera Chorus / Budapest Philharmonic Orchestra, Ferencsik) - 1994, APE (image+.cue) lossless


 

[Цитировать]

Ferenc Erkel - Bánk Bán
Жанр: Opera
Страна-производитель диска: Hungary
Год издания диска: 1994
Издатель (лейбл): Hungaroton
Номер по каталогу: HCD 11376-77
Дата записи: 1969
Аудиокодек: APE
Тип рипа: image+.cue
Битрейт аудио: lossless
Продолжительность: 63'31+62'48
Источник: собственный рип
Наличие сканов в содержимом раздачи: да
Треклист:

CD1

1. Act I, Prelude
2. Act I: Ah, Biberach örvendj
3. Act I: Bordalt, Petur... Ha férfilelkedet
4. Act I: A királyné!... Szép örömkönny
5. Act I: Hívtál, Petur bán!
6. Act I: Jöjjetek barátaim!
7. Act I: Gyengéd szíved nem örül
8. Act I: Melinda, csak egy szóra!
9. Act I: Lett volna vak e szem… Melinda! Te égi név
10. Act I: Óh, szégyen, ím az első lény
11. Act I, Finale: Most Gertrud elbocsát
12. Act II, Prelude
13. Act II: Mint száműzött… Hazám, hazám

CD2

1. Act II: A békétlenek terveit… Nagyúr! Bánk, jó napot
2. Act II: Sebhely díszíti homlokod
3. Act II: Gyászhírt hozok
4. Act II: Ölj meg engemet, Bánk
5. Act II: Hol van fehér homlokod liljom virága?
6. Act II: Hűséges Tiborcom… Ki ártatlanul bűnös vagyok
7. Act II: Bánk bán! Te itt?
8. Act II: Magyar hazámnak falvait bejártam
9. Act III: Szegény gyermekem
10. Act III: Élt régen egyszer
11. Act III: A csónak készen vár… Álmodj szelíden
12. Act III: Ne üljetek most a ladikra fel!
13. Act III: Isten, a holtnak adj örök nyugalmat
14. Act III, Finale: Oh, jaj nekem! Tiborc!
Исполнители:
Ferenc Erkel - Bánk Bán
Opera in 3 Acts
Libretto by Béni Egressy after a tragedy by József Katona
Endre II - Sándor Sólyom-Nagy, bariton
Ottó - Jószef Réti, tenor
Bánk bán - József Simándy, tenor
Melinda - Karola Ágay, soprano
Petur bán - András Faragó, bariton
Gertrud - Erzsébet Komlossy, mezzo-soprano
Hungarian State Opera Chorus
Budapest Philharmonic Orchestra
Conductor: János Ferencsik

Лог создания рипа

CD1

Exact Audio Copy V1.0 beta 6 from 9. April 2015
EAC extraction logfile from 13. July 2015, 20:40
Erkel / Bánk Bán, Ferencsik CD1
Used drive : TS8XDVDSTRANSCEND Adapter: 1 ID: 1
Read mode : Secure
Utilize accurate stream : Yes
Defeat audio cache : Yes
Make use of C2 pointers : No
Read offset correction : 6
Overread into Lead-In and Lead-Out : No
Fill up missing offset samples with silence : Yes
Delete leading and trailing silent blocks : No
Null samples used in CRC calculations : Yes
Used interface : Native Win32 interface for Win NT & 2000
Used output format : Monkey's Audio Lossless Encoder
Selected bitrate : High Lossless Compression
Quality : High
Add ID3 tag : Yes
Command line compressor : C:\Program Files (x86)\Exact Audio Copy\MAC\MAC.exe
TOC of the extracted CD
Track | Start | Length | Start sector | End sector
---------------------------------------------------------
1 | 0:00.25 | 3:01.72 | 25 | 13671
2 | 3:02.22 | 3:20.70 | 13672 | 28741
3 | 6:23.17 | 2:35.28 | 28742 | 40394
4 | 8:58.45 | 2:49.30 | 40395 | 53099
5 | 11:48.00 | 7:13.20 | 53100 | 85594
6 | 19:01.20 | 4:46.32 | 85595 | 107076
7 | 23:47.52 | 5:57.50 | 107077 | 133901
8 | 29:45.27 | 6:48.15 | 133902 | 164516
9 | 36:33.42 | 3:49.08 | 164517 | 181699
10 | 40:22.50 | 2:17.12 | 181700 | 191986
11 | 42:39.62 | 7:34.38 | 191987 | 226074
12 | 50:14.25 | 0:53.05 | 226075 | 230054
13 | 51:07.30 | 2:38.72 | 230055 | 241976
14 | 53:46.27 | 7:50.48 | 241977 | 277274
15 | 61:37.00 | 1:54.50 | 277275 | 285874
Range status and errors
Selected range
Filename D:\EAC\Erkel - Bánk Bán, Ferencsik CD1.wav
Peak level 98.4 %
Extraction speed 4.6 X
Range quality 100.0 %
Test CRC 4526A4F5
Copy CRC 4526A4F5
Copy OK
No errors occurred
AccurateRip summary
Track 1 cannot be verified as accurate (confidence 3) [D63D2C84], AccurateRip returned [417A06D2] (AR v2)
Track 2 cannot be verified as accurate (confidence 3) [A45FFE72], AccurateRip returned [8F5A5B0A] (AR v2)
Track 3 cannot be verified as accurate (confidence 3) [687CCAE0], AccurateRip returned [B4E29EA1] (AR v2)
Track 4 cannot be verified as accurate (confidence 3) [1D1A6EF0], AccurateRip returned [4CC08F7A] (AR v2)
Track 5 cannot be verified as accurate (confidence 3) [6A1685C1], AccurateRip returned [4FEC019C] (AR v2)
Track 6 cannot be verified as accurate (confidence 3) [61568EAE], AccurateRip returned [6224D33F] (AR v2)
Track 7 cannot be verified as accurate (confidence 3) [A0ECC309], AccurateRip returned [BF6F31DE] (AR v2)
Track 8 cannot be verified as accurate (confidence 3) [B3D9391B], AccurateRip returned [B1133F18] (AR v2)
Track 9 cannot be verified as accurate (confidence 3) [4DA31272], AccurateRip returned [C66DA180] (AR v2)
Track 10 cannot be verified as accurate (confidence 3) [8DAF1106], AccurateRip returned [16753837] (AR v2)
Track 11 cannot be verified as accurate (confidence 3) [BB59262E], AccurateRip returned [D673537A] (AR v2)
Track 12 cannot be verified as accurate (confidence 3) [4CE40A59], AccurateRip returned [951FC7D7] (AR v2)
Track 13 cannot be verified as accurate (confidence 3) [587F4935], AccurateRip returned [ECA0447E] (AR v2)
Track 14 cannot be verified as accurate (confidence 3) [F87E0511], AccurateRip returned [13627FE7] (AR v2)
Track 15 cannot be verified as accurate (confidence 3) [7648CD76], AccurateRip returned [30D2C4B8] (AR v2)
No tracks could be verified as accurate
You may have a different pressing from the one(s) in the database
End of status report
---- CUETools DB Plugin V2.1.6
[CTDB TOCID: XnKtqvOfvZNSDba1oLiP2JbBpCY-] disk not present in database
Submit result: unrecognized or virtual drive
==== Log checksum 0834F2C91080F83DC9E677D5B5536756A23734B83D237FDD4B64B6E819AE2A0F ====

CD2

Exact Audio Copy V1.0 beta 6 from 9. April 2015
EAC extraction logfile from 13. July 2015, 20:23
Erkel / Bánk Bán, Ferencsik CD2
Used drive : TSSTcorpCDDVDW SE-208AB Adapter: 1 ID: 2
Read mode : Secure
Utilize accurate stream : Yes
Defeat audio cache : Yes
Make use of C2 pointers : No
Read offset correction : 6
Overread into Lead-In and Lead-Out : No
Fill up missing offset samples with silence : Yes
Delete leading and trailing silent blocks : No
Null samples used in CRC calculations : Yes
Used interface : Native Win32 interface for Win NT & 2000
Used output format : Monkey's Audio Lossless Encoder
Selected bitrate : High Lossless Compression
Quality : High
Add ID3 tag : Yes
Command line compressor : C:\Program Files (x86)\Exact Audio Copy\MAC\MAC.exe
TOC of the extracted CD
Track | Start | Length | Start sector | End sector
---------------------------------------------------------
1 | 0:00.25 | 2:54.47 | 25 | 13121
2 | 2:54.72 | 3:33.70 | 13122 | 29166
3 | 6:28.67 | 3:56.25 | 29167 | 46891
4 | 10:25.17 | 8:14.45 | 46892 | 83986
5 | 18:39.62 | 6:30.40 | 83987 | 113276
6 | 25:10.27 | 5:44.73 | 113277 | 139149
7 | 30:55.25 | 6:10.12 | 139150 | 166911
8 | 37:05.37 | 3:53.48 | 166912 | 184434
9 | 40:59.10 | 4:52.22 | 184435 | 206356
10 | 45:51.32 | 2:06.68 | 206357 | 215874
11 | 47:58.25 | 10:07.25 | 215875 | 261424
12 | 58:05.50 | 4:42.25 | 261425 | 282599
Range status and errors
Selected range
Filename D:\EAC\Erkel - Bánk Bán, Ferencsik CD2.wav
Peak level 98.4 %
Extraction speed 4.6 X
Range quality 100.0 %
Test CRC 9F7E4769
Copy CRC 9F7E4769
Copy OK
No errors occurred
AccurateRip summary
Track 1 accurately ripped (confidence 2) [0A25B48C] (AR v1)
Track 2 accurately ripped (confidence 2) [C25DF900] (AR v1)
Track 3 accurately ripped (confidence 2) [C61B7870] (AR v1)
Track 4 accurately ripped (confidence 2) [DBE7CEF7] (AR v1)
Track 5 accurately ripped (confidence 2) [563D50C0] (AR v1)
Track 6 accurately ripped (confidence 2) [B1066818] (AR v1)
Track 7 accurately ripped (confidence 2) [C4B0BBFC] (AR v1)
Track 8 accurately ripped (confidence 2) [E2354F7D] (AR v1)
Track 9 accurately ripped (confidence 2) [36F187BB] (AR v1)
Track 10 accurately ripped (confidence 2) [4B4F8A64] (AR v1)
Track 11 accurately ripped (confidence 2) [FAAC619E] (AR v1)
Track 12 accurately ripped (confidence 2) [D0F9640B] (AR v1)
All tracks accurately ripped
End of status report
---- CUETools DB Plugin V2.1.6
[CTDB TOCID: SfJ0gzVhJNVHWlT6b0.fc9OEAno-] disk not present in database
Submit result: SfJ0gzVhJNVHWlT6b0.fc9OEAno- has been uploaded
==== Log checksum 0E116DE0C6B02E04AB59B83A88D0924156EDA692D0059CC7B714C0C339E3D1B3 ====

Содержание индексной карты (.CUE)

CD1

REM GENRE Classical
REM DATE 1969
REM DISCID D10EE30F
REM COMMENT "ExactAudioCopy v1.0b6"
PERFORMER "Erkel"
TITLE "Bánk Bán, Ferencsik CD1"
FILE "Erkel - Bánk Bán, Ferencsik CD1.ape" WAVE
TRACK 01 AUDIO
TITLE "Bánk Bán, opera: Prelude"
PERFORMER "Solyom-Nagy, Komlossy, Reti, Simandy - Budapest Philharmonic, Ferencsik"
INDEX 00 00:00:00
INDEX 01 00:00:25
TRACK 02 AUDIO
TITLE "Bánk Bán, opera: Act 1. Scene 1. Scena. Ah, Biberach örvendj"
PERFORMER "Solyom-Nagy, Komlossy, Reti, Simandy - Budapest Philharmonic, Ferencsik"
INDEX 01 03:02:22
TRACK 03 AUDIO
TITLE "Bánk Bán, opera: Act 1. Scene 1. Drinking Song. Bordalt, Petur... Ha férfilel..."
PERFORMER "Solyom-Nagy, Komlossy, Reti, Simandy - Budapest Philharmonic, Ferencsik"
INDEX 01 06:23:17
TRACK 04 AUDIO
TITLE "Bánk Bán, opera: Act 1. Scene 1. Scena. A királyné!... Szép örömkönny"
PERFORMER "Solyom-Nagy, Komlossy, Reti, Simandy - Budapest Philharmonic, Ferencsik"
INDEX 01 08:58:45
TRACK 05 AUDIO
TITLE "Bánk Bán, opera: Act 1. Scene 1. Duet. Hívtál, Petur bán!"
PERFORMER "Solyom-Nagy, Komlossy, Reti, Simandy - Budapest Philharmonic, Ferencsik"
INDEX 01 11:48:00
TRACK 06 AUDIO
TITLE "Bánk Bán, opera: Act 1. Scene 1. Scena and ballet. Jöjjetek barátaim!"
PERFORMER "Solyom-Nagy, Komlossy, Reti, Simandy - Budapest Philharmonic, Ferencsik"
INDEX 01 19:01:20
TRACK 07 AUDIO
TITLE "Bánk Bán, opera: Act 1. Scene 1. Scena. Gyengéd szived nem örül"
PERFORMER "Solyom-Nagy, Komlossy, Reti, Simandy - Budapest Philharmonic, Ferencsik"
INDEX 01 23:47:52
TRACK 08 AUDIO
TITLE "Bánk Bán, opera: Act 1. Scene 2. Scena, Aria and Duet. Melinda, csak, egy szóra!"
PERFORMER "Solyom-Nagy, Komlossy, Reti, Simandy - Budapest Philharmonic, Ferencsik"
INDEX 00 29:40:52
INDEX 01 29:45:27
TRACK 09 AUDIO
TITLE "Bánk Bán, opera: Act 1. Scene 2. Romance. Lett volna vak e szem... Melinda! t..."
PERFORMER "Solyom-Nagy, Komlossy, Reti, Simandy - Budapest Philharmonic, Ferencsik"
INDEX 01 36:33:42
TRACK 10 AUDIO
TITLE "Bánk Bán, opera: Act 1. Scene 2. Scena. Oh, szégyen, im az elso lény"
PERFORMER "Solyom-Nagy, Komlossy, Reti, Simandy - Budapest Philharmonic, Ferencsik"
INDEX 01 40:22:50
TRACK 11 AUDIO
TITLE "Bánk Bán, opera: Act 1. Scene 3. Finale. Most Gertrud ellbocsát"
PERFORMER "Solyom-Nagy, Komlossy, Reti, Simandy - Budapest Philharmonic, Ferencsik"
INDEX 00 42:36:25
INDEX 01 42:39:62
TRACK 12 AUDIO
TITLE "Bánk Bán, opera: Act 2. Scene 1. Prelude"
PERFORMER "Solyom-Nagy, Komlossy, Reti, Simandy - Budapest Philharmonic, Ferencsik"
INDEX 00 50:06:00
INDEX 01 50:14:25
TRACK 13 AUDIO
TITLE "Bánk Bán, opera: Act 2. Scene 1. Aria. Mint számüzött... Hazám, hazám"
PERFORMER "Solyom-Nagy, Komlossy, Reti, Simandy - Budapest Philharmonic, Ferencsik"
INDEX 01 51:07:30
TRACK 14 AUDIO
TITLE "Bánk Bán, opera: Act 2. Scene 1. Duet. A békétlenek terveit... Nagyúr! Bánk, ..."
PERFORMER "Solyom-Nagy, Komlossy, Reti, Simandy - Budapest Philharmonic, Ferencsik"
INDEX 01 53:46:27
TRACK 15 AUDIO
TITLE "Bánk Bán, opera: Act 2. Scene 1. Duet. Sebhely disziti homlokod"
PERFORMER "Solyom-Nagy, Komlossy, Reti, Simandy - Budapest Philharmonic, Ferencsik"
INDEX 01 61:37:00

CD2

REM GENRE Opera
REM DATE 1994
REM DISCID A10EB80C
REM COMMENT "ExactAudioCopy v1.0b6"
PERFORMER "Erkel"
TITLE "Bánk Bán, Ferencsik CD2"
FILE "Erkel - Bánk Bán, Ferencsik CD2.ape" WAVE
TRACK 01 AUDIO
TITLE "Act 2. Scene 1. Scena: gyászhírt hozok"
PERFORMER "Solyom-Nagy, Komlossy, Reti, Simandy - Budapest Philharmonic, Ferencsik"
INDEX 00 00:00:00
INDEX 01 00:00:25
TRACK 02 AUDIO
TITLE "Act 2. Scene 1. Ária: Ölj meg engemet"
PERFORMER "Solyom-Nagy, Komlossy, Reti, Simandy - Budapest Philharmonic, Ferencsik"
INDEX 01 02:54:72
TRACK 03 AUDIO
TITLE "Act 2. Scene 1. Duett: Hol van fehér homlokod"
PERFORMER "Solyom-Nagy, Komlossy, Reti, Simandy - Budapest Philharmonic, Ferencsik"
INDEX 00 06:27:25
INDEX 01 06:28:67
TRACK 04 AUDIO
TITLE "Act 2. Scene 1. A búcsú: Hûséges Tiborcom"
PERFORMER "Solyom-Nagy, Komlossy, Reti, Simandy - Budapest Philharmonic, Ferencsik"
INDEX 01 10:25:17
TRACK 05 AUDIO
TITLE "Act 2. Scene 2. Duett: Bánk bán, te itt?"
PERFORMER "Solyom-Nagy, Komlossy, Reti, Simandy - Budapest Philharmonic, Ferencsik"
INDEX 00 18:35:25
INDEX 01 18:39:62
TRACK 06 AUDIO
TITLE "Act 2. Scene 2. Magyar hazámnak falvait"
PERFORMER "Solyom-Nagy, Komlossy, Reti, Simandy - Budapest Philharmonic, Ferencsik"
INDEX 00 25:09:27
INDEX 01 25:10:27
TRACK 07 AUDIO
TITLE "Act 3. Scene 1. Scena: Szegény gyermekem"
PERFORMER "Solyom-Nagy, Komlossy, Reti, Simandy - Budapest Philharmonic, Ferencsik"
INDEX 00 30:47:00
INDEX 01 30:55:25
TRACK 08 AUDIO
TITLE "Act 3. Scene 1. Ária: Élt régen, egyszer"
PERFORMER "Solyom-Nagy, Komlossy, Reti, Simandy - Budapest Philharmonic, Ferencsik"
INDEX 01 37:05:37
TRACK 09 AUDIO
TITLE "Act 3. Scene 1. Recitativo és altatódal: A csónak készen vár"
PERFORMER "Solyom-Nagy, Komlossy, Reti, Simandy - Budapest Philharmonic, Ferencsik"
INDEX 01 40:59:10
TRACK 10 AUDIO
TITLE "Act 3. Scene 1. Scena: Ne üljetek most a ladikra!"
PERFORMER "Solyom-Nagy, Komlossy, Reti, Simandy - Budapest Philharmonic, Ferencsik"
INDEX 01 45:51:32
TRACK 11 AUDIO
TITLE "Act 3. Scene 2. Scena: Isten, a holtnak adj örök"
PERFORMER "Solyom-Nagy, Komlossy, Reti, Simandy - Budapest Philharmonic, Ferencsik"
INDEX 00 47:54:00
INDEX 01 47:58:25
TRACK 12 AUDIO
TITLE "Act 3. Scene 2. Finálé: Oh, jaj nekem, Tiborc!"
PERFORMER "Solyom-Nagy, Komlossy, Reti, Simandy - Budapest Philharmonic, Ferencsik"
INDEX 01 58:05:50



Показать сообщения:    

Текущее время: 09-Дек 12:43

Часовой пояс: UTC + 3


Вы не можете начинать темы
Вы не можете отвечать на сообщения
Вы не можете редактировать свои сообщения
Вы не можете удалять свои сообщения
Вы не можете голосовать в опросах
Вы не можете прикреплять файлы к сообщениям
Вы не можете скачивать файлы