Кто Вы, Артур Фогель / Кто такой Артур Фогель / Who the F**K Is Arthur Fogel (Рон Чэпмен / Ron Chapman) [2013, Документальный, HDTVRip] VO + MVO + Eng


Статистика раздачи [Обновить пиров]
Размер:  2.19 GB   |    Зарегистрирован:  8 месяцев 18 дней   |    Скачан:  0 раз

Полного источника не было: Никогда

 
   
 
 
 

[Цитировать]

Кто Вы, Артур Фогель / Кто такой Артур Фогель / Who the F**K Is Arthur Fogel
Дата/Год выпуска: 2013
Страна: Канада
Жанр: Документальный
Продолжительность: 01:43:59
Перевод 1: Студийный (одноголосый закадровый) Амедиа
Перевод 2: Профессиональный (многоголосый закадровый) 1 канал
Русские субтитры: нет
Оригинальная аудиодорожка: английский
Режиссер: Рон Чэпмен / Ron Chapman
Описание: Его имя мало кто знает, у него не берут автографы, но U2, Madonna, The Police, Lady Gaga, Rush и многие другие звезды из мира шоу-бизнеса во многом обязаны своей славой именно ему. Документальный фильм об одном из самых известных музыкальных промоутеров современности - Артуре Фогеле.
Доп. информация: В дорожке "Амедиа" есть два небольших пропуска в несколько секунд, возможно сбой в трансляции - здесь вставил озвучка с 1 канала. По 1 каналу показали сокращенную версию, пропуски в дорожке "1 канал" дополнены из дорожки "Амедиа".
Сэмпл: http://multi-up.com/1059266
качество: HDTVRip
формат: AVI
Видео: MPEG4, XviD, 720x400 (16:9), 23.976 fps, 2 229 Kbps (0.323 bit/pixel)
Аудио: AC-3, 48.0 KHz, 6 ch, 384 Kbps, CBR - Амедиа
Аудио 2: AC-3, 48.0 KHz, 2 ch, 192 Kbps, CBR - 1 канал
Аудио 3: AC-3, 48.0 KHz, 2 ch, 192 Kbps, CBR - английский

MediaInfo

бщее
Полное имя : K:\Кто Вы, Артур Фогель.avi
Формат : AVI
Формат/Информация : Audio Video Interleave
Профиль формата : OpenDML
Размер файла : 2,19 Гбайт
Продолжительность : 1 ч. 43 м.
Общий поток : 3021 Кбит/сек
Название фильма : Кто Вы, Артур Фогель / Кто такой Артур Фогель / Who the F**K Is Arthur Fogel (2013)
Программа кодирования : VirtualDubMod 1.5.10.2 (build 2540/release)
Авторское право : miha2154
Видео
Идентификатор : 0
Формат : MPEG-4 Visual
Профиль формата : Advanced Simple@L5
Параметр BVOP формата : 1
Параметр QPel формата : Нет
Параметр GMC формата : Без точки перехода
Параметр матрицы формата : Выборочная
Идентификатор кодека : XVID
Идентификатор кодека/Подсказка : XviD
Продолжительность : 1 ч. 43 м.
Битрейт : 2229 Кбит/сек
Ширина : 720 пикселей
Высота : 400 пикселей
Соотношение сторон : 16:9
Частота кадров : 23,976 кадра/сек
Цветовое пространство : YUV
Субдискретизация насыщенности : 4:2:0
Битовая глубина : 8 бит
Тип развёртки : Прогрессивная
Метод сжатия : С потерями
Бит/(Пиксели*Кадры) : 0.323
Размер потока : 1,62 Гбайт (74%)
Библиотека кодирования : XviD 65
Аудио #1
Идентификатор : 1
Формат : AC-3
Формат/Информация : Audio Coding 3
Расширение режима : CM (complete main)
Параметр Endianness формата : Big
Идентификатор кодека : 2000
Продолжительность : 1 ч. 43 м.
Вид битрейта : Постоянный
Битрейт : 384 Кбит/сек
Каналы : 6 каналов
Расположение каналов : Front: L C R, Side: L R, LFE
Частота : 48,0 КГц
Метод сжатия : С потерями
Размер потока : 285 Мбайт (13%)
Выравнивание : Разделение по промежуткам
Продолжительность промежутка : 42 мс. (1,00 видеокадр)
Время предзагрузки промежутка : 500 мс.
Заголовок : Профессиональный (одноголосый закадровый) Амедиа
Аудио #2
Идентификатор : 2
Формат : AC-3
Формат/Информация : Audio Coding 3
Расширение режима : CM (complete main)
Параметр Endianness формата : Big
Идентификатор кодека : 2000
Продолжительность : 1 ч. 43 м.
Вид битрейта : Постоянный
Битрейт : 192 Кбит/сек
Каналы : 2 канала
Расположение каналов : Front: L R
Частота : 48,0 КГц
Метод сжатия : С потерями
Размер потока : 143 Мбайт (6%)
Выравнивание : Разделение по промежуткам
Продолжительность промежутка : 42 мс. (1,00 видеокадр)
Время предзагрузки промежутка : 500 мс.
Заголовок : Профессиональный (многоголосый закадровый) 1 канал
Аудио #3
Идентификатор : 3
Формат : AC-3
Формат/Информация : Audio Coding 3
Расширение режима : CM (complete main)
Параметр Endianness формата : Big
Идентификатор кодека : 2000
Продолжительность : 1 ч. 43 м.
Вид битрейта : Постоянный
Битрейт : 192 Кбит/сек
Каналы : 2 канала
Расположение каналов : Front: L R
Частота : 48,0 КГц
Метод сжатия : С потерями
Размер потока : 143 Мбайт (6%)
Выравнивание : Разделение по промежуткам
Продолжительность промежутка : 42 мс. (1,00 видеокадр)
Время предзагрузки промежутка : 500 мс.
Заголовок : Английский

Скриншоты


[teatrix.ru].t21783.torrent 
Торрент: Зарегистрирован [ 2016-03-20 12:53 ] · 0126908B13960B0FE72B74FC4C329780E4C27887

Скачать .torrent

Скачать

11 KB

Статус: проверено
Скачан: 0 раз
Размер: 2.19 GB
terms.php



Быстрый ответ

Имя:

      
Для отправки сообщений необходимо включить JavaScript
Показать сообщения:    

Текущее время: 08-Дек 09:02

Часовой пояс: UTC + 3


Вы можете начинать темы
Вы можете отвечать на сообщения
Вы не можете редактировать свои сообщения
Вы не можете удалять свои сообщения
Вы не можете голосовать в опросах
Вы не можете прикреплять файлы к сообщениям
Вы можете скачивать файлы