(Classical / Orchestral) Bedrich Smetana - Ma vlast (My Country) / Бедржих Сметана - Моя родина (Wiener Philharmoniker, Nikolaus Harnoncourt, 2001) - 2003, FLAC (tracks+.cue) lossless


 

[Цитировать]

Bedřich Smetana | Бедржих Сметана
(1824–1884)



Má vlast | My Country | Моя родина


Wiener Philharmoniker
Nikolaus Harnoncourt conductor


Жанр: Classical / Orchestral
Дата и место записи: Musikverein, Wien, 3–7 November 2001 (live)
Формат записи: DDD, Stereo
Год издания диска: 2003
Издатель (лейбл): BMG/RCA
Номер по каталогу: 82876 54331 2
Аудиокодек: FLAC
Тип рипа: tracks+.cue
Битрейт аудио: lossless
Продолжительность: 1:23:15
Наличие сканов в содержимом раздачи: да (буклет неполный)
Источник: What.CD
Релизёр: Nanook


Tracklist / Треклист
CD 1
Má vlast (My Country) - 1:23:15
I. Vyšehrad - 15:55
  • II. Vltava (The Moldau) - 12:54
  • III. Šárka - 10:41
    CD 2
    Má vlast (My Country) (cont.)
    IV. Z českých luhů a hájů (From Bohemia's fields and groves) - 13:52
  • V. Tábor - 14:25
  • VI. Blaník - 15:27

    -

    XLD logs / Отчёты XLDCD 1

    X Lossless Decoder version 20140427 (146.0)
    XLD extraction logfile from 2014-04-30 02:54:51 -0400
    Smetana, Bedřich / Smetana: Má Vlast (My Fatherland) • Harnoncourt • Wiener Philharmoniker
    Used drive : MATSHITA DVD-R UJ-8A8 (revision HB14)
    Media type : Pressed CD
    Ripper mode : XLD Secure Ripper
    Disable audio cache : OK for the drive with a cache less than 1375KiB
    Make use of C2 pointers : NO
    Read offset correction : 102
    Max retry count : 100
    Gap status : Analyzed, Appended (except HTOA)
    TOC of the extracted CD
    Track | Start | Length | Start sector | End sector
    ---------------------------------------------------------
    1 | 00:00:00 | 15:54:66 | 0 | 71615
    2 | 15:54:66 | 12:54:26 | 71616 | 129691
    3 | 28:49:17 | 10:41:13 | 129692 | 177779
    List of alternate offset correction values
    # | Absolute | Relative | Confidence
    ------------------------------------------
    1 | 132 | 30 | 30
    2 | 120 | 18 | 10
    AccurateRip Summary (DiscID: 0005c8d0-0012f925-22094203)
    Track 01 : OK (v1+v2, confidence 30/40, with different offset)
    Track 02 : OK (v1+v2, confidence 30/40, with different offset)
    Track 03 : OK (v1+v2, confidence 29/39, with different offset)
    ->All tracks accurately ripped.
    All Tracks
    Album gain : 0.43 dB
    Peak : 0.999969
    Statistics
    Read error : 0
    Jitter error (maybe fixed) : 0
    Retry sector count : 0
    Damaged sector count : 0
    Track 01
    Filename : /Users/cmac/Desktop/Smetana, Bedřich - Smetana - Má Vlast (My Fatherland) • Harnoncourt • Wiener Philharmoniker [2003] FLAC/01 Vyšehrad.flac
    Pre-gap length : 00:02:00
    Track gain : 0.25 dB
    Peak : 0.999969
    CRC32 hash (test run) : 035D14B7
    CRC32 hash : 035D14B7
    CRC32 hash (skip zero) : CDA76CDC
    AccurateRip v1 signature : 1EB21931 (E5C24E9F w/correction)
    AccurateRip v2 signature : 85F44652 (4A60F606 w/correction)
    ->Accurately ripped with different offset (v1+v2, confidence 17+13/40, offset +30)
    Statistics
    Read error : 0
    Jitter error (maybe fixed) : 0
    Retry sector count : 0
    Damaged sector count : 0
    Track 02
    Filename : /Users/cmac/Desktop/Smetana, Bedřich - Smetana - Má Vlast (My Fatherland) • Harnoncourt • Wiener Philharmoniker [2003] FLAC/02 Vltava (The Moldau).flac
    Track gain : 0.54 dB
    Peak : 0.889221
    CRC32 hash (test run) : 13A3C54E
    CRC32 hash : 13A3C54E
    CRC32 hash (skip zero) : 216208C7
    AccurateRip v1 signature : 346B36C7 (D3C0D3D7 w/correction)
    AccurateRip v2 signature : B4C941CA (72A0C1C9 w/correction)
    ->Accurately ripped with different offset (v1+v2, confidence 17+13/40, offset +30)
    Statistics
    Read error : 0
    Jitter error (maybe fixed) : 0
    Retry sector count : 0
    Damaged sector count : 0
    Track 03
    Filename : /Users/cmac/Desktop/Smetana, Bedřich - Smetana - Má Vlast (My Fatherland) • Harnoncourt • Wiener Philharmoniker [2003] FLAC/03 Šárka.flac
    Track gain : 0.60 dB
    Peak : 0.988556
    CRC32 hash (test run) : E6D17C2B
    CRC32 hash : E6D17C2B
    CRC32 hash (skip zero) : 6A578837
    AccurateRip v1 signature : 3C3CA76A (23C3388A w/correction)
    AccurateRip v2 signature : 32D221B3 (0976F02B w/correction)
    ->Accurately ripped with different offset (v1+v2, confidence 17+12/39, offset +30)
    Statistics
    Read error : 0
    Jitter error (maybe fixed) : 0
    Retry sector count : 0
    Damaged sector count : 0
    No errors occurred
    End of status report
    -----BEGIN XLD SIGNATURE-----
    nXjtOgBMACUWmszEQ6Z7SIuoit1pCRCun7JkjlVAF9BO_ecI1kwVLj_NQnqQxpbJ7re9H0qAjon9URcJLpFYd6VhOc9Ubif3Gt7hulu
    -----END XLD SIGNATURE-----

    CD 2

    X Lossless Decoder version 20140427 (146.0)
    XLD extraction logfile from 2014-04-30 03:13:52 -0400
    Smetana, Bedřich / Smetana: Má Vlast • Harnoncourt • Wiener Philharmoniker
    Used drive : MATSHITA DVD-R UJ-8A8 (revision HB14)
    Media type : Pressed CD
    Ripper mode : XLD Secure Ripper
    Disable audio cache : OK for the drive with a cache less than 1375KiB
    Make use of C2 pointers : NO
    Read offset correction : 102
    Max retry count : 100
    Gap status : Analyzed, Appended (except HTOA)
    TOC of the extracted CD
    Track | Start | Length | Start sector | End sector
    ---------------------------------------------------------
    1 | 00:00:00 | 13:52:01 | 0 | 62400
    2 | 13:52:01 | 14:24:72 | 62401 | 127272
    3 | 28:16:73 | 15:27:36 | 127273 | 196833
    List of alternate offset correction values
    # | Absolute | Relative | Confidence
    ------------------------------------------
    1 | 778 | 676 | 35
    2 | 766 | 664 | 2
    AccurateRip Summary (DiscID: 0005e5cc-0013be86-290a4003)
    Track 01 : OK (v1+v2, confidence 34/36, with different offset)
    Track 02 : OK (v1+v2, confidence 35/37, with different offset)
    Track 03 : OK (v1+v2, confidence 35/37, with different offset)
    ->All tracks accurately ripped.
    All Tracks
    Album gain : -1.01 dB
    Peak : 0.929657
    Statistics
    Read error : 0
    Jitter error (maybe fixed) : 0
    Retry sector count : 0
    Damaged sector count : 0
    Track 01
    Filename : /Users/cmac/Desktop/Smetana, Bedřich - Smetana - Má Vlast • Harnoncourt • Wiener Philharmoniker [2003] FLAC/01 Z českých luhů a hájů (From Bohemia's Fields and Graves).flac
    Pre-gap length : 00:02:00
    Track gain : -0.45 dB
    Peak : 0.842041
    CRC32 hash (test run) : BBE91FD1
    CRC32 hash : BBE91FD1
    CRC32 hash (skip zero) : ED1B8614
    AccurateRip v1 signature : 8AC6558B (89A2CAB3 w/correction)
    AccurateRip v2 signature : A55233E3 (4082BB27 w/correction)
    ->Accurately ripped with different offset (v1+v2, confidence 18+16/36, offset +676)
    Statistics
    Read error : 0
    Jitter error (maybe fixed) : 0
    Retry sector count : 0
    Damaged sector count : 0
    Track 02
    Filename : /Users/cmac/Desktop/Smetana, Bedřich - Smetana - Má Vlast • Harnoncourt • Wiener Philharmoniker [2003] FLAC/02 Tábor.flac
    Track gain : -0.94 dB
    Peak : 0.915710
    CRC32 hash (test run) : 24A74242
    CRC32 hash : 24A74242
    CRC32 hash (skip zero) : 8DB6EDD3
    AccurateRip v1 signature : 48C7A619 (028BBB4B w/correction)
    AccurateRip v2 signature : BD2BC2C9 (1772A3A2 w/correction)
    ->Accurately ripped with different offset (v1+v2, confidence 19+16/37, offset +676)
    Statistics
    Read error : 0
    Jitter error (maybe fixed) : 0
    Retry sector count : 0
    Damaged sector count : 0
    Track 03
    Filename : /Users/cmac/Desktop/Smetana, Bedřich - Smetana - Má Vlast • Harnoncourt • Wiener Philharmoniker [2003] FLAC/03 Blaník.flac
    Track gain : -1.47 dB
    Peak : 0.929657
    CRC32 hash (test run) : A2EEB4D7
    CRC32 hash : A2EEB4D7
    CRC32 hash (skip zero) : 3F1F5F1C
    AccurateRip v1 signature : 1E7E27BC (60BED4C8 w/correction)
    AccurateRip v2 signature : 432F2892 (8EA11CFE w/correction)
    ->Accurately ripped with different offset (v1+v2, confidence 19+16/37, offset +676)
    Statistics
    Read error : 0
    Jitter error (maybe fixed) : 0
    Retry sector count : 0
    Damaged sector count : 0
    No errors occurred
    End of status report
    -----BEGIN XLD SIGNATURE-----
    zxH7EKdY_XMNVnIYSnhiWnoFgMwvGWy98dthMBu7bPCsWUz0GTLkB7dCshgp38Xch9bYt9_Wfvq9t.jQTA21xkudHjlM5E6setkERA0
    -----END XLD SIGNATURE-----

    auCDtect Task Manager logs / Отчёты auCDtect Task ManagerCD 1

    -----------------------
    DON'T MODIFY THIS FILE
    -----------------------
    PERFORMER: auCDtect Task Manager, ver. 1.5.1RC3 build 1.5.1.4
    Copyright (c) 2008-2010 y-soft. All rights reserved
    ANALYZER: auCDtect: CD records authenticity detector, version 0.8.2
    Copyright (c) 2004 Oleg Berngardt. All rights reserved.
    Copyright (c) 2004 Alexander Djourik. All rights reserved.
    FILE: 03 - Ma vlast - III. Sarka.flac
    Size: 48261844 Hash: 78FC663395EE4AAA916FFCA1D343A3B6 Accuracy: -m0
    Conclusion: CDDA 100%
    Signature: D330698B2569FB2552CF24D79283C52899395408
    FILE: 02 - Ma vlast - II. Vltava.flac
    Size: 57091272 Hash: 30CDAAD4E654F57C2CA679510AF2945A Accuracy: -m0
    Conclusion: CDDA 100%
    Signature: 0058FD95D871D50691C5E452DE00B28E3C3AF23D
    FILE: 01 - Ma vlast - I. Vysehrad.flac
    Size: 63003688 Hash: 4EA1B62787BBC6B9F186E7C24317BBF0 Accuracy: -m0
    Conclusion: CDDA 100%
    Signature: B9E6BC0C79C90F174542B1DCE510B6A0AB72C7D2

    CD 2

    -----------------------
    DON'T MODIFY THIS FILE
    -----------------------
    PERFORMER: auCDtect Task Manager, ver. 1.5.1RC3 build 1.5.1.4
    Copyright (c) 2008-2010 y-soft. All rights reserved
    ANALYZER: auCDtect: CD records authenticity detector, version 0.8.2
    Copyright (c) 2004 Oleg Berngardt. All rights reserved.
    Copyright (c) 2004 Alexander Djourik. All rights reserved.
    FILE: 03 - Ma vlast - VI. Blanik.flac
    Size: 68767287 Hash: A68D410011DEA447F6B2633F1D29F571 Accuracy: -m0
    Conclusion: CDDA 100%
    Signature: F961F0A4BA71317C7F7AC1D995F25CCD60D3E9AB
    FILE: 02 - Ma vlast - V. Tabor.flac
    Size: 59574185 Hash: 3A1466E7B0A1C7CBFF19E34343BBD5E0 Accuracy: -m0
    Conclusion: CDDA 100%
    Signature: AA80D7E0F10FAA14E205E15BEBC75F1CE62E8ED1
    FILE: 01 - Ma vlast - IV. Z ceskych luhu a haju.flac
    Size: 62349186 Hash: B323C9BD0F78AC41F05D7FDBB67E2FE8 Accuracy: -m0
    Conclusion: CDDA 100%
    Signature: 4019A0EF3729F7EEB0848BB84E28425D6615454A

    CUETools logs / Отчёты CUEToolsCD 1

    [CUETools log; Date: 20.07.2015 17:09:48; Version: 2.1.4]
    [AccurateRip ID: 0005c8d0-0012f925-22094203] found.
    Track [ CRC | V2 ] Status
    01 [1eb21931|85f44652] (00+00/49) No match
    02 [346b36c7|b4c941ca] (00+00/49) No match
    03 [3c3ca76a|32d221b3] (00+00/47) No match
    Offsetted by 18:
    01 [7019cdb6] (05/49) Accurately ripped
    02 [446de4f5] (05/49) Accurately ripped
    03 [960f5d92] (05/47) Accurately ripped
    Offsetted by 30:
    01 [e5c24e9f] (17/49) Accurately ripped
    02 [d3c0d3d7] (17/49) Accurately ripped
    03 [23c3388a] (17/47) Accurately ripped
    Offsetted by -634:
    01 [af05766b] (00/49) No match (V2 was not tested)
    02 [a088050f] (00/49) No match (V2 was not tested)
    03 [b4e85246] (00/47) No match (V2 was not tested)
    Track Peak [ CRC32 ] [W/O NULL]
    -- 100,0 [4CD4B9A9] [F99093EB]
    01 100,0 [035D14B7] [CDA76CDC]
    02 88,9 [13A3C54E] [216208C7]
    03 98,8 [E6D17C2B] [6A578837]

    CD 2

    [CUETools log; Date: 20.07.2015 17:09:57; Version: 2.1.4]
    [AccurateRip ID: 0005e5cc-0013be86-290a4003] found.
    Track [ CRC | V2 ] Status
    01 [8ac6558b|a55233e3] (00+00/45) No match
    02 [48c7a619|bd2bc2c9] (00+00/46) No match
    03 [1e7e27bc|432f2892] (00+00/46) No match
    Offsetted by 676:
    01 [89a2cab3] (18/45) Accurately ripped
    02 [028bbb4b] (19/46) Accurately ripped
    03 [60bed4c8] (19/46) Accurately ripped
    Offsetted by 664:
    01 [ed1db47e] (00/45) No match (V2 was not tested)
    02 [c8fd5b85] (00/46) No match (V2 was not tested)
    03 [a1a3e2e0] (00/46) No match (V2 was not tested)
    Track Peak [ CRC32 ] [W/O NULL]
    -- 92,9 [ECAF4071] [5334A26A]
    01 84,2 [BBE91FD1] [ED1B8614]
    02 91,5 [24A74242] [8DB6EDD3]
    03 92,9 [A2EEB4D7] [3F1F5F1C]

    CUE sheetsCD 1

    TITLE "Bedřich Smetana: Má vlast"
    PERFORMER "Nikolaus Harnoncourt"
    CATALOG 0828765433129
    REM GENRE Classical
    REM DISCID 22094203
    REM REPLAYGAIN_ALBUM_GAIN 0.43 dB
    REM REPLAYGAIN_ALBUM_PEAK 0.999969
    FILE "01 - Ma vlast - I. Vysehrad.flac" WAVE
    TRACK 01 AUDIO
    TITLE "Má vlast (My Country): I. Vyšehrad"
    PERFORMER "Wiener Philharmoniker. Nikolaus Harnoncourt, conductor"
    REM DATE 2001
    REM REPLAYGAIN_TRACK_GAIN 0.25 dB
    REM REPLAYGAIN_TRACK_PEAK 0.999969
    INDEX 01 00:00:00
    FILE "02 - Ma vlast - II. Vltava.flac" WAVE
    TRACK 02 AUDIO
    TITLE "Má vlast (My Country): II. Vltava (The Moldau)"
    PERFORMER "Wiener Philharmoniker. Nikolaus Harnoncourt, conductor"
    REM DATE 2001
    REM REPLAYGAIN_TRACK_GAIN 0.54 dB
    REM REPLAYGAIN_TRACK_PEAK 0.889221
    INDEX 01 00:00:00
    FILE "03 - Ma vlast - III. Sarka.flac" WAVE
    TRACK 03 AUDIO
    TITLE "Má vlast (My Country): III. Šárka"
    PERFORMER "Wiener Philharmoniker. Nikolaus Harnoncourt, conductor"
    REM DATE 2001
    REM REPLAYGAIN_TRACK_GAIN 0.60 dB
    REM REPLAYGAIN_TRACK_PEAK 0.988556
    INDEX 01 00:00:00

    CD 2

    TITLE "Bedřich Smetana: Má vlast"
    PERFORMER "Nikolaus Harnoncourt"
    CATALOG 0828765433129
    REM GENRE Classical
    REM DISCID 290A4003
    REM REPLAYGAIN_ALBUM_GAIN -1.01 dB
    REM REPLAYGAIN_ALBUM_PEAK 0.929657
    FILE "01 - Ma vlast - IV. Z ceskych luhu a haju.flac" WAVE
    TRACK 01 AUDIO
    TITLE "Má vlast (My Country): IV. Z českých luhů a hájů (From Bohemia's fields and groves)"
    PERFORMER "Wiener Philharmoniker. Nikolaus Harnoncourt, conductor"
    REM DATE 2001
    REM REPLAYGAIN_TRACK_GAIN -0.45 dB
    REM REPLAYGAIN_TRACK_PEAK 0.842041
    INDEX 01 00:00:00
    FILE "02 - Ma vlast - V. Tabor.flac" WAVE
    TRACK 02 AUDIO
    TITLE "Má vlast (My Country): V. Tábor"
    PERFORMER "Wiener Philharmoniker. Nikolaus Harnoncourt, conductor"
    REM DATE 2001
    REM REPLAYGAIN_TRACK_GAIN -0.94 dB
    REM REPLAYGAIN_TRACK_PEAK 0.915710
    INDEX 01 00:00:00
    FILE "03 - Ma vlast - VI. Blanik.flac" WAVE
    TRACK 03 AUDIO
    TITLE "Má vlast (My Country): VI. Blaník"
    PERFORMER "Wiener Philharmoniker. Nikolaus Harnoncourt, conductor"
    REM DATE 2001
    REM REPLAYGAIN_TRACK_GAIN -1.47 dB
    REM REPLAYGAIN_TRACK_PEAK 0.929657
    INDEX 01 00:00:00
    -
    Все мои раздачи / All my releases



  • Показать сообщения:    

    Текущее время: 07-Дек 15:31

    Часовой пояс: UTC + 3


    Вы не можете начинать темы
    Вы не можете отвечать на сообщения
    Вы не можете редактировать свои сообщения
    Вы не можете удалять свои сообщения
    Вы не можете голосовать в опросах
    Вы не можете прикреплять файлы к сообщениям
    Вы не можете скачивать файлы