(Classical) Dancas Brasileiras: Nepomuceno, Levy, Villa-Lobos, Guarnieri, Jobim - Sao Paulo Symphony Orchestra, Roberto Minczuk - 2011, FLAC (image+.cue) lossless


 

[Цитировать]

Dancas Brasileiras: Nepomuceno, Levy, Villa-Lobos, Guarnieri, Jobim - São Paulo Symphony Orchestra, Roberto Minczuk
Жанр: Classical
Страна-производитель диска: Sweden
Год издания диска: 2011
Издатель (лейбл): BIS
Номер по каталогу: BIS-SACD-1430
Дата записи: 2003
Аудиокодек: FLAC
Тип рипа: image+.cue
Битрейт аудио: lossless
Продолжительность: 59:21
Источник: собственный рип
Наличие сканов в содержимом раздачи: да
Треклист:
Alberto Nepomuceno (1864-1920)
[1] Garatuja - Prelúdio
[2] Batuque
Alexandre Levy (1864-1892)
[3] Samba
Heitor Villa-Lobos (1887-1959)
[4] Dança Frenética
Francisco Mignone (1897-1986)
[5] Congada
Oscar Lorenzo Fernández (1897-1948)
[6] Batuque
Camargo Guarnieri (1907-1993)
[7]-[9] Três Danças para Orquestra
Edino Krieger (b.1928)
[10] Passacalha para o Novo Milênio
Antônio Carlos Jobim (1927-1994)
[11] A Chegada dos Candangos
Clóvis Pereira / César Guerra-Peixe
[12] Mourão
Исполнители:
São Paulo Symphony Orchestra (OSESP)
Roberto Minczuk
conductor

Лог создания рипа

Exact Audio Copy V1.0 beta 3 from 29. August 2011
EAC extraction logfile from 1. February 2015, 18:53
OSESP, Roberto Minczuk / Brazilian Dances
Used drive : HL-DT-STDVDRAM GU70N Adapter: 0 ID: 0
Read mode : Secure
Utilize accurate stream : Yes
Defeat audio cache : Yes
Make use of C2 pointers : No
Read offset correction : 48
Overread into Lead-In and Lead-Out : No
Fill up missing offset samples with silence : Yes
Delete leading and trailing silent blocks : No
Null samples used in CRC calculations : Yes
Used interface : Native Win32 interface for Win NT & 2000
Used output format : User Defined Encoder
Selected bitrate : 128 kBit/s
Quality : High
Add ID3 tag : No
Command line compressor : C:\Program Files (x86)\Exact Audio Copy\Flac\flac.exe
Additional command line options : -V -8 -T "Date=%year%" -T "Genre=%genre%" %source%
TOC of the extracted CD
Track | Start | Length | Start sector | End sector
---------------------------------------------------------
1 | 0:00.00 | 9:02.18 | 0 | 40667
2 | 9:02.18 | 3:42.62 | 40668 | 57379
3 | 12:45.05 | 7:09.43 | 57380 | 89597
4 | 19:54.48 | 5:42.06 | 89598 | 115253
5 | 25:36.54 | 5:55.33 | 115254 | 141911
6 | 31:32.12 | 3:58.68 | 141912 | 159829
7 | 35:31.05 | 1:48.55 | 159830 | 167984
8 | 37:19.60 | 4:47.00 | 167985 | 189509
9 | 42:06.60 | 2:20.66 | 189510 | 200075
10 | 44:27.51 | 7:13.55 | 200076 | 232605
11 | 51:41.31 | 4:04.58 | 232606 | 250963
12 | 55:46.14 | 3:35.28 | 250964 | 267116
Range status and errors
Selected range
Filename C:\temp\BIS-SACD-1430 - Dancas Brasileiras\Brazilian Dances.wav
Peak level 98.8 %
Extraction speed 2.2 X
Range quality 100.0 %
Test CRC 050FC438
Copy CRC 050FC438
Copy OK
No errors occurred
AccurateRip summary
Track 1 accurately ripped (confidence 2) [317EDC81] (AR v2)
Track 2 accurately ripped (confidence 2) [E2E2DC90] (AR v2)
Track 3 accurately ripped (confidence 2) [6BB55E72] (AR v2)
Track 4 accurately ripped (confidence 2) [F6A18415] (AR v2)
Track 5 accurately ripped (confidence 2) [BD38A1F0] (AR v2)
Track 6 accurately ripped (confidence 2) [FBC9FF47] (AR v2)
Track 7 accurately ripped (confidence 2) [07EC8756] (AR v2)
Track 8 accurately ripped (confidence 2) [F8C42F64] (AR v2)
Track 9 accurately ripped (confidence 2) [3BABA11E] (AR v2)
Track 10 accurately ripped (confidence 2) [61D19D72] (AR v2)
Track 11 accurately ripped (confidence 2) [71F40DA1] (AR v2)
Track 12 accurately ripped (confidence 2) [68136933] (AR v2)
All tracks accurately ripped
End of status report
==== Log checksum BAF0A6CD3EF45B5845BEB9BE33A4A80D01C94B88B24ECE5E9D50229FFF61B796 ====



Показать сообщения:    

Текущее время: 19-Янв 22:17

Часовой пояс: UTC + 3


Вы не можете начинать темы
Вы не можете отвечать на сообщения
Вы не можете редактировать свои сообщения
Вы не можете удалять свои сообщения
Вы не можете голосовать в опросах
Вы не можете прикреплять файлы к сообщениям
Вы не можете скачивать файлы