Часовой / La Sentinelle (Арно Деплешен / Arnaud Desplechin) [1992, Франция, триллер, DVDRip] Sub Rus (Маньен) + Original Fre


Статистика раздачи [Обновить пиров]
Размер:  1.46 GB   |    Зарегистрирован:  8 месяцев 21 день   |    Скачан:  0 раз

Полного источника не было: Никогда

 
   
 
 
 

[Цитировать]

Часовой / La Sentinelle
Страна: Франция
Жанр: триллер
Год выпуска: 1992
Продолжительность: 02:19:54
Перевод: Субтитры - Маньен
Cубтитры: русские
Оригинальная аудиодорожка: французский

Режиссер: Арно Деплешен / Arnaud Desplechin
В ролях: Эммануэль Салинжер, Тибо де Монталембер, Жан-Луи Ришар, Валери Древиль, Марианна Деникур, Жан-Люк Бутте, Брюно Тодескини, Филипп Дуклос, Фабрис Деплешан, Эммануэль Дево, Филипп Люденбах, Ласло Сабо, Алексис Ницер, Надин Алари, Жан-Пьер Дюко, Алан МакМой, Луи-До де Ленкусен, Матье Амальрик, Реджинальд Юженин, Джерси Рогульски, Жанна Балибар
Описание: Матиас, покойный отец которого был дипломатом в Германии, решает изучать судебную медицину в Париже. В поезде у него возникают неприятности с таможенниками, а кроме того его оскорбляет странный человек, который быстро исчезает. На следующий день, он обнаруживает в своем багаже человеческую голову. Матиас чувствует себя ответственным (он начинает считать себя стражем памяти о владельце головы) и начинает собственное исследование, во время которого ему приходится иметь дело с французскими секретными службами.
Качество видео: DVDRip
Формат видео: AVI
Видео: 672x400 (1.68:1), 25 fps, XviD build 73 ~1227 kbps avg, 0.18 bit/pixel
Аудио: 48 kHz, AC3 Dolby Digital, 2/0 (L,R) ch, ~256 kbps

Фрагмент субтитров

505
00:42:07,520 --> 00:42:10,592
Я заглянул под кушетки.
Он ничего не трогал.
506
00:42:10,760 --> 00:42:12,990
Кое-какие документы.
Посеял где-то.
507
00:42:13,160 --> 00:42:14,479
- Это...
- Фигня?
508
00:42:14,640 --> 00:42:17,473
Да, ничего важного.
Позвоню матушке.
509
00:42:17,960 --> 00:42:20,918
Вы тоже хороши.
Кто вам мешал переслать
510
00:42:21,080 --> 00:42:23,640
весь багаж с диппочтой?
511
00:42:23,800 --> 00:42:26,997
Я сижу тут, в кабинете, в своем
512
00:42:27,160 --> 00:42:30,197
муравейнике...
Мы, видите ли, творим Историю.
513
00:42:30,360 --> 00:42:32,396
- Буржуйский недоросль.
- Сам такой!
514
00:42:32,560 --> 00:42:35,120
- Мой отец в мэрии работал.
- Ну и что?
515
00:42:35,280 --> 00:42:37,475
Мы так рвались к власти!
516
00:42:37,840 --> 00:42:39,831
Экзамены, стажировки...
517
00:42:40,400 --> 00:42:43,119
Наступил момент,
когда мы добились всего,
518
00:42:43,280 --> 00:42:44,759
и ничего больше.
519
00:42:45,480 --> 00:42:49,758
Класс. Эта сволочь стала
неприкасаемой.
520
00:42:49,920 --> 00:42:52,036
Волшебная корочка. Завидуешь?
521
00:42:52,200 --> 00:42:53,428
С какой стати?

MediaInfo

Общее
Полное имя : H:\La.Sentinelle.1992.dvdrip_[1.46]_[teko]\La.Sentinelle.1992.dvdrip_[1.46].avi
Формат : AVI
Формат/Информация : Audio Video Interleave
Размер файла : 1,46 Гбайт
Продолжительность : 2 ч. 19 м.
Общий поток : 1493 Кбит/сек
Программа кодирования : VirtualDubMod 1.5.10.3 | www.virtualdub-fr.org || (build 2550/release)
Библиотека кодирования : VirtualDubMod build 2550/release
Видео
Идентификатор : 0
Формат : MPEG-4 Visual
Профиль формата : Advanced Simple@L5
Параметр BVOP формата : 1
Параметр QPel формата : Нет
Параметр GMC формата : Без точки перехода
Параметр матрицы формата : Выборочная
Идентификатор кодека : XVID
Идентификатор кодека/Подсказка : XviD
Продолжительность : 2 ч. 19 м.
Битрейт : 1228 Кбит/сек
Ширина : 672 пикселя
Высота : 400 пикселей
Соотношение сторон : 1,680
Частота кадров : 25,000 кадров/сек
Цветовое пространство : YUV
Субдискретизация насыщенности : 4:2:0
Битовая глубина : 8 бит
Тип развёртки : Прогрессивная
Метод сжатия : С потерями
Бит/(Пиксели*Кадры) : 0.183
Размер потока : 1,20 Гбайт (82%)
Библиотека кодирования : XviD 73
Аудио
Идентификатор : 1
Формат : AC-3
Формат/Информация : Audio Coding 3
Расширение режима : CM (complete main)
Параметр Endianness формата : Big
Идентификатор кодека : 2000
Продолжительность : 2 ч. 19 м.
Вид битрейта : Постоянный
Битрейт : 256 Кбит/сек
Каналы : 2 канала
Расположение каналов : Front: L R
Частота : 48,0 КГц
Битовая глубина : 16 бит
Метод сжатия : С потерями
Размер потока : 256 Мбайт (17%)
Выравнивание : Разделение по промежуткам
Продолжительность промежутка : 40 мс. (1,00 видеокадр)
Время предзагрузки промежутка : 500 мс.
[teatrix.ru].t21787.torrent 
Торрент: Зарегистрирован [ 2016-03-20 12:53 ] · 1B7D4CAB221B4784AC1D52ED28ACE9E41F3FD6ED

Скачать .torrent

Скачать

15 KB

Статус: проверено
Скачан: 0 раз
Размер: 1.46 GB
terms.php



Быстрый ответ

Имя:

      
Для отправки сообщений необходимо включить JavaScript
Показать сообщения:    

Текущее время: 10-Дек 17:45

Часовой пояс: UTC + 3


Вы можете начинать темы
Вы можете отвечать на сообщения
Вы не можете редактировать свои сообщения
Вы не можете удалять свои сообщения
Вы не можете голосовать в опросах
Вы не можете прикреплять файлы к сообщениям
Вы можете скачивать файлы